Subcategories

Trance Music Mastery - Guide To Compression

Posted By: ParRus
Trance Music Mastery - Guide To Compression

Trance Music Mastery - Guide To Compression
English | MP4 | 1280 x 720 | AVC ~112 kbps | 29.970 fps
AAC | 321 kbps | 48.0 KHz | 2 channels | 4h 20mn | 1.39 GB
Genre: Video Tutorial / Sound processing (2012)

Learn To Use Compression To Get a Professional Sound. Over 4 Hours of Video Tutorials Dedicated To Compression! Learn The Ins and Outs of Compression. Learn Key Skills For Producing Trance Music.
In fact, the Guide to Compression is an incredibly comprehensive and detailed course:
•30 HD Videos with high quality sound
•Over 4 hours of Video – Everything you need to know in order to get that professional sound in your mix.

Sounds Good, Doesn’t it? Well Here’s What’s In It
•A complete breakdown of the theory of compression, including:
-Dynamics
-Transfer function graphs
-Threshold
-Ratio
-Knee
-Gain Reduction vs. Make-up Gain
-Attack
-Release

•How to use compression on various sounds like kicks, claps, snares, loops
•How to get more attack and punch out of your sounds
•How to give a sound more decay and sustain
•More advanced concepts like parallel compression (aka New York)
•How to use side-chain compression

Module 1
-Introduction
-Series of slides that will help Understanding Dynamics
-General Overview of Compression
-All About Transfer Function Graph
-Going through the threshold compression parameter
-Go through the ratio parameter
-Discuss the concept of knee
-Covers gain reduction and make up gain
-Go through the attack setting on a compressor
-Go over the release parameter
-Conclusion
Module 2-Introduction
-Walk through the steps to setup
-Walk through the Fabfilter Pro-C user interface
-Applying compression to a clap sample to emphasize the samples attack so that the clap has more punch
-Applying compression to a clap sample to emphasize the samples decay so that the clap sustains for a longer duration
-Compress a snare to give it more punch
-How to increase the sustain of the snare hit
-Add punch to the kick
-Compressing a kick drum in order to bring up the decay envelope so that it sustains for a longer period of time
-Go through the compression of drum loop
-Conclusion
Module 3
-Introduction
-Compress a piano sample
-Compress a bass line samples
-Sidechain compression applied to a bass line to keep it from interfering with the kick
-Sidechain compression and applied to a pad
-How to use parallel compression
-How to setup parallel compression
-Conclusion

More Info: homepage

General
Complete name : GTC-Module-1-Video-1_qtp.mp4
Format : MPEG-4
Format profile : Base Media
Codec ID : isom
File size : 11.9 MiB
Duration : 3mn 48s
Overall bit rate mode : Variable
Overall bit rate : 438 Kbps
Writing application : Lavf52.32.0
Video #1
ID : 1
Format : AVC
Format/Info : Advanced Video Codec
Format profile : Main@L3.1
Format settings, CABAC : Yes
Format settings, ReFrames : 1 frame
Codec ID : avc1
Codec ID/Info : Advanced Video Coding
Duration : 3mn 48s
Bit rate : 112 Kbps
Width : 1 280 pixels
Height : 720 pixels
Display aspect ratio : 16:9
Frame rate mode : Constant
Frame rate : 29.970 fps
Color space : YUV
Chroma subsampling : 4:2:0
Bit depth : 8 bits
Scan type : Progressive
Bits/(Pixel*Frame) : 0.004
Stream size : 3.04 MiB (26%)
Language : English
Audio #2
ID : 2
Format : AAC
Format/Info : Advanced Audio Codec
Format profile : LC
Codec ID : 40
Duration : 3mn 48s
Bit rate mode : Variable
Bit rate : 321 Kbps
Channel(s) : 2 channels
Channel positions : Front: L R
Sampling rate : 48.0 KHz
Compression mode : Lossy
Stream size : 8.74 MiB (73%)
Language : English
Screenshots

Trance Music Mastery - Guide To Compression

Trance Music Mastery - Guide To Compression

Trance Music Mastery - Guide To Compression

Trance Music Mastery - Guide To Compression

For more, Visit my AH-blog

no mirrors please, Follow The Rules