Subcategories

Infinite Skills - Learning Adobe Photoshop Lightroom 4 Training Video

Posted By: Polik88
Infinite Skills - Learning Adobe Photoshop Lightroom 4 Training Video

Infinite Skills - Learning Adobe Photoshop Lightroom 4 Training Video
English | MP4 | 1024x576 | AVC 225 Kbps 15.000 fps | AAC 64.0 Kbps 44.1 khz | 9.25 hours | 1.8 GB
Genre: Video Training

In this Adobe Photoshop Lightroom 4 training course, creative and technical expert Andy Anderson takes you through the features and functions of this comprehensive software for both the professional and amateur photographer. Designed for the beginner, you do not require any prior experience working with Adobe Lightroom to take advantage of this tutorial.
You will begin by touring the Lightroom interface, and become familiar with the tools and features that are available to you. You will them move on to cover features such as basic and advanced catalog organization, tethering, manipulating your images, geo-coding images, working with modules such as Develop and the Book Module, and so much more. You will learn to create slide shows, print and publish your images, and even export them to use with other Adobe Suite products.
By the conclusion of this video based training course on Adobe Photoshop Lightroom 4, you will have a clear understanding of the features and functions at your fingertips, and how to utilize them within the software. Working files are included to let you work alongside the author as he proceed through this software video tutorial.

01. Introduction
02. The First Step
03. Getting Ready To Work
04. Catalogs And Basic Imports
05. Capturing With Tether
06. Working In The Library Module
07. Working In The Catalog With RAW And DNG Images
08. Manipulating Images In The Library
09. Organization Is The Key
10. Working With Lightroom Metadata
11. Finding What You Need
12. Working In The Map Module
13. Exporting & Publishing From The Library
14. Introduction To The Develop Module
15. Working With Develop Basic Tools
16. Develop Module Adjustments
17. Additional Develop Adjustments
18. The Book Module
19. Creating Slideshows
20. The Print Module
21. The Web Module
General
Complete name : Adobe Photoshop Lightroom 4\0101_2.mp4
Format : MPEG-4
Format profile : Base Media / Version 2
Codec ID : mp42
File size : 4.75 MiB
Duration : 2mn 12s
Overall bit rate : 301 Kbps
Encoded date : UTC 2012-04-11 21:38:03
Tagged date : UTC 2012-04-11 20:40:45
Writing application : Sorenson Squeeze

Video
ID : 2
Format : AVC
Format/Info : Advanced Video Codec
Format profile : Main@L3.1
Format settings, CABAC : Yes
Format settings, ReFrames : 4 frames
Codec ID : avc1
Codec ID/Info : Advanced Video Coding
Duration : 2mn 12s
Duration_LastFrame : 58ms
Bit rate mode : Variable
Bit rate : 225 Kbps
Width : 1 024 pixels
Height : 576 pixels
Display aspect ratio : 16:9
Frame rate mode : Constant
Frame rate : 15.000 fps
Color space : YUV
Chroma subsampling : 4:2:0
Bit depth : 8 bits
Scan type : Progressive
Bits/(Pixel*Frame) : 0.025
Stream size : 3.67 MiB (77%)
Writing library : x264 core 115
Encoding settings : cabac=1 / ref=3 / deblock=1:0:0 / analyse=0x1:0x111 / me=hex / subme=7 / psy=1 / psy_rd=1.00:0.00 / mixed_ref=1 / me_range=16 / chroma_me=1 / trellis=1 / 8x8dct=0 / cqm=0 / deadzone=21,11 / fast_pskip=1 / chroma_qp_offset=-2 / threads=1 / sliced_threads=0 / nr=0 / decimate=1 / interlaced=0 / bluray_compat=0 / constrained_intra=0 / bframes=3 / b_pyramid=2 / b_adapt=1 / b_bias=0 / direct=1 / weightb=1 / open_gop=0 / weightp=2 / keyint=149 / keyint_min=14 / scenecut=50 / intra_refresh=0 / rc_lookahead=40 / rc=2pass / mbtree=1 / bitrate=225 / ratetol=100.0 / qcomp=0.60 / qpmin=0 / qpmax=69 / qpstep=4 / cplxblur=20.0 / qblur=0.5 / ip_ratio=1.40 / aq=1:1.00
Encoded date : UTC 2012-04-11 21:38:03
Tagged date : UTC 2012-04-11 21:38:03

Audio
ID : 1
Format : AAC
Format/Info : Advanced Audio Codec
Format profile : LC
Codec ID : 40
Duration : 2mn 12s
Bit rate mode : Constant
Bit rate : 64.0 Kbps
Channel(s) : 1 channel
Channel positions : Front: C
Sampling rate : 44.1 KHz
Compression mode : Lossy
Stream size : 1.01 MiB (21%)
Encoded date : UTC 2012-04-11 21:38:03
Tagged date : UTC 2012-04-11 21:38:03

Screenshots

Infinite Skills - Learning Adobe Photoshop Lightroom 4 Training Video

Infinite Skills - Learning Adobe Photoshop Lightroom 4 Training Video

Infinite Skills - Learning Adobe Photoshop Lightroom 4 Training Video

no mirrors please, Follow The Rules
Visit Polik88 Blog Here
no password

Infinite Skills - Learning Adobe Photoshop Lightroom 4 Training Video