Subcategories

Mastering Finish Carpentry: Program 4 - Installing Baseboard

Posted By: ParRus
Mastering Finish Carpentry: Program 4 - Installing Baseboard

Mastering Finish Carpentry: Program 4 - Installing Baseboard
DVDRip | English | M4V | 624 x 480 | AVC ~787 kbps | 29.970 fps
AAC | 128 kbps | 48.0 KHz | 2 channels | 00:36:06 | 237 MB
Genre: eLearning Video / Homebuilding, Repair, Woodworking

Casing and baseboard form the foundation for much of the joinery in finish carpentry. Using a range of tools and techniques, these two programs focus on techniques for creating tight and durable joinery, emphasizing accuracy, efficiency, and safety.
General
Complete name : Installing Baseboard.m4v
Format : MPEG-4
Format profile : Base Media / Version 2
Codec ID : mp42
File size : 237 MiB
Duration : 36mn 6s
Overall bit rate mode : Variable
Overall bit rate : 920 Kbps
Encoded date : UTC 2010-10-11 20:39:36
Tagged date : UTC 2010-10-11 21:03:24
Writing application : HandBrake 0.9.4 2009112300
Video #1
ID : 1
Format : AVC
Format/Info : Advanced Video Codec
Format profile : Main@L3.0
Format settings, CABAC : Yes
Format settings, ReFrames : 2 frames
Codec ID : avc1
Codec ID/Info : Advanced Video Coding
Duration : 36mn 6s
Bit rate mode : Variable
Bit rate : 787 Kbps
Width : 624 pixels
Height : 480 pixels
Display aspect ratio : 1.300
Frame rate mode : Variable
Frame rate : 29.970 fps
Minimum frame rate : 14.988 fps
Maximum frame rate : 29.970 fps
Color space : YUV
Chroma subsampling : 4:2:0
Bit depth : 8 bits
Scan type : Progressive
Bits/(Pixel*Frame) : 0.088
Stream size : 203 MiB (86%)
Writing library : x264 core 79 r1347 5ddd61b
Encoding settings : cabac=1 / ref=2 / deblock=1:0:0 / analyse=0x1:0x111 / me=hex / subme=6 / psy=1 / psy_rd=1.0:0.0 / mixed_ref=0 / me_range=16 / chroma_me=1 / trellis=0 / 8x8dct=0 / cqm=0 / deadzone=21,11 / chroma_qp_offset=-2 / threads=3 / nr=0 / decimate=1 / mbaff=0 / constrained_intra=0 / bframes=2 / b_pyramid=0 / b_adapt=1 / b_bias=0 / direct=1 / wpredb=0 / wpredp=2 / keyint=300 / keyint_min=30 / scenecut=40 / rc_lookahead=40 / rc=crf / mbtree=1 / crf=20.8 / qcomp=0.60 / qpmin=10 / qpmax=51 / qpstep=4 / ip_ratio=1.40 / aq=1:1.00
Encoded date : UTC 2010-10-11 20:39:36
Tagged date : UTC 2010-10-11 21:03:24
Color primaries : BT.601-6 525, BT.1358 525, BT.1700 NTSC, SMPTE 170M
Transfer characteristics : BT.709-5, BT.1361
Matrix coefficients : BT.601-6 525, BT.1358 525, BT.1700 NTSC, SMPTE 170M
Audio #2
ID : 2
Format : AAC
Format/Info : Advanced Audio Codec
Format profile : LC
Codec ID : 40
Duration : 36mn 6s
Bit rate mode : Variable
Bit rate : 128 Kbps
Maximum bit rate : 166 Kbps
Channel(s) : 2 channels
Channel positions : Front: L R
Sampling rate : 48.0 KHz
Compression mode : Lossy
Stream size : 33.1 MiB (14%)
Encoded date : UTC 2010-10-11 20:39:36
Tagged date : UTC 2010-10-11 21:03:24
Text #3
ID : 3
Format : Apple text
Codec ID : text
Duration : 36mn 6s
Bit rate mode : Constant
Bit rate : 0
Stream size : 96.0 Bytes (0%)
Encoded date : UTC 2010-10-11 20:39:36
Tagged date : UTC 2010-10-11 21:03:24
Screenshots

Mastering Finish Carpentry: Program 4 - Installing Baseboard

Mastering Finish Carpentry: Program 4 - Installing Baseboard

Mastering Finish Carpentry: Program 4 - Installing Baseboard

Mastering Finish Carpentry: Program 4 - Installing Baseboard

For more, Visit my AH-blog

no mirrors please, Follow The Rules