Subcategories

Jamie Oliver: Eat to Save Your Life (2008)

Posted By: Polik88
Jamie Oliver: Eat to Save Your Life (2008)

Jamie Oliver: Eat to Save Your Life (2008)
DVDRip | English | AVI/XVID 25.000 fps 1170 Kbps | 624x352 | MP3 128 Kbps 48.0 khz | 1h 14mn | 700 MB
Genre: Video Training / Cooking

Dramatic demonstrations, including an autopsy on a 25-stone man, are used as the celebrity chef is joined by fitness expert Dr Catherine Spencer-Smith and anatomist Dr Gunther von Hagens to illustrate the dangers of unhealthy eating to 18 volunteers with unbalanced diets. xperts reveal today's children may die younger than their parents if nothing is done, so Jamie and his team attempt to show people how they can live longer.
General
Complete name : Jamie Oliver Eat to Save Your Life 2008.avi
Format : AVI
Format/Info : Audio Video Interleave
File size : 700 MiB
Duration : 1h 14mn
Overall bit rate mode : Variable
Overall bit rate : 1 311 Kbps
Writing application : VirtualDubMod 1.5.10.2 (build 2540/release)
Writing library : VirtualDubMod build 2540/release

Video
ID : 0
Format : MPEG-4 Visual
Format profile : Advanced Simple@L5
Format settings, BVOP : 2
Format settings, QPel : No
Format settings, GMC : No warppoints
Format settings, Matrix : Default (H.263)
Codec ID : XVID
Codec ID/Hint : XviD
Duration : 1h 14mn
Bit rate : 1 170 Kbps
Width : 624 pixels
Height : 352 pixels
Display aspect ratio : 16:9
Frame rate : 25.000 fps
Color space : YUV
Chroma subsampling : 4:2:0
Bit depth : 8 bits
Scan type : Progressive
Compression mode : Lossy
Bits/(Pixel*Frame) : 0.213
Stream size : 625 MiB (89%)
Writing library : XviD 1.1.2 (UTC 2006-11-01)

Audio
ID : 1
Format : MPEG Audio
Format version : Version 1
Format profile : Layer 3
Mode : Joint stereo
Mode extension : MS Stereo
Codec ID : 55
Codec ID/Hint : MP3
Duration : 1h 14mn
Bit rate mode : Variable
Bit rate : 128 Kbps
Nominal bit rate : 136 Kbps
Channel(s) : 2 channels
Sampling rate : 48.0 KHz
Compression mode : Lossy
Stream size : 68.6 MiB (10%)
Alignment : Aligned on interleaves
Interleave, duration : 24 ms (0.60 video frame)
Interleave, preload duration : 446 ms
Writing library : LAME3.97b
Encoding settings : -m j -V 4 -q 3 -lowpass 17 –abr 136

Screenshots

Jamie Oliver: Eat to Save Your Life (2008)

Jamie Oliver: Eat to Save Your Life (2008)

Jamie Oliver: Eat to Save Your Life (2008)

no mirrors please, Follow The Rules
Visit Polik88 Blog Here
no password