Subcategories

Joint Mobilization/Manipulation: Extremity and Spinal Techniques - Susan L. Edmond (Repost)

Posted By: Polik88
Joint Mobilization/Manipulation: Extremity and Spinal Techniques - Susan L. Edmond (Repost)

Joint Mobilization/Manipulation: Extremity and Spinal Techniques - Susan L. Edmond
English | MPG | 384x288 | MPEG Video 1000 Kbps 29.970 fps | MPEG Audio 96.0 Kbps 44.1 khz | 56mn 00s | 487 MB
Genre: Video Training

Mobilizations are used to restore joint play that has been lost due to injury or disease. In order for an individual to kick his leg out, there must be sufficient joint play, or freedom for the tibia to move on the femur. Thus, mobilizations are used when range of motion or mobility is lacking. Furthermore, gentle oscillations within the available joint play range is a technique used to decrease pain. Manipulations are quick movements that occur beyond the available joint play range. The purpose of manipulations, or joint thrusts, is to increase the available range if it is not full. Secondly, manipulations are done to break adhesions that disrupt joint movement.
General
Complete name : 3_A.mpg
Format : MPEG-PS
File size : 5.14 MiB
Duration : 38s 609ms
Overall bit rate : 1 116 Kbps
Writing library : encoded by TMPGEnc (ver. 2.02.31.119)

Video
ID : 224 (0xE0)
Format : MPEG Video
Format version : Version 1
Format settings, BVOP : Yes
Format settings, Matrix : Custom
Format settings, GOP : M=3, N=18
Duration : 38s 605ms
Bit rate : 1 000 Kbps
Width : 384 pixels
Height : 288 pixels
Display aspect ratio : 4:3
Frame rate : 29.970 fps
Color space : YUV
Chroma subsampling : 4:2:0
Bit depth : 8 bits
Scan type : Progressive
Compression mode : Lossy
Bits/(Pixel*Frame) : 0.302
Time code of first frame : 00:00:00:00
Time code source : Group of pictures header
Stream size : 4.59 MiB (89%)
Writing library : TMPGEnc 2.02.31.119

Audio
ID : 192 (0xC0)
Format : MPEG Audio
Format version : Version 1
Format profile : Layer 2
Duration : 38s 609ms
Bit rate mode : Constant
Bit rate : 96.0 Kbps
Channel(s) : 1 channel
Sampling rate : 44.1 KHz
Compression mode : Lossy
Stream size : 452 KiB (9%)

Screenshots:

Joint Mobilization/Manipulation: Extremity and Spinal Techniques - Susan L. Edmond (Repost)

Joint Mobilization/Manipulation: Extremity and Spinal Techniques - Susan L. Edmond (Repost)

Joint Mobilization/Manipulation: Extremity and Spinal Techniques - Susan L. Edmond (Repost)

no mirrors please.
Visit My Blog Here
no password

Joint Mobilization/Manipulation: Extremity and Spinal Techniques - Susan L. Edmond (Repost)