Subcategories

Winter Escape - Inside With Plein Air Painter Kevin Macpherson [repost]

Posted By: ParRus
Winter Escape - Inside With Plein Air Painter Kevin Macpherson [repost]

Winter Escape - Inside With Plein Air Painter Kevin Macpherson
DVDRip | English | AVI | 528 x 400 | XviD ~1367 kbps | 29.970 fps
AC-3 | 384 Kbps | 48.0 KHz | 2 channels | 03:40:14 | 2.74 GB
Genre: eLearning Video / Painting

Plein Air painter Kevin Macpherson develops this large studio snow scene from several small studies. He discusses his thoughts on color and composition, in depth, as he enlarges the studies. Learn how he retains the freshness and simplicity of the small works on a large canvas.
During the painting process Kevin pauses for self critiques and shares his impressions and goals with the viewer. He explains the logic of his limited palette: color harmony, warm and cool hues, value relationships and techniques of painterly painting.

Listening and watching Kevin as he paints this large studio work is more informative than viewing a live demonstration. The multiple cameras follow the action in close up detail from palette to canvas.

This video is an excellent addition to any artist library and a must have for anyone who desires to learn the impressionistic techniques of this plein air master.

More Info: http://kevinmacpherson.com/works/300920/winter-esca…hipping-included

General
Complete name : Kevin MacPherson Winter Escape part 1.avi
Format : AVI
Format/Info : Audio Video Interleave
File size : 1.37 GiB
Duration : 1h 51mn
Overall bit rate : 1 759 Kbps
Writing application : VirtualDubMod 1.5.4.1 (build 2178/release)
Writing library : VirtualDubMod build 2178/release
Video #0
ID : 0
Format : MPEG-4 Visual
Format profile : Advanced Simple@L5
Format settings, BVOP : 1
Format settings, QPel : No
Format settings, GMC : No warppoints
Format settings, Matrix : Custom
Codec ID : XVID
Codec ID/Hint : XviD
Duration : 1h 51mn
Bit rate : 1 367 Kbps
Width : 528 pixels
Height : 400 pixels
Display aspect ratio : 4:3
Frame rate : 29.970 fps
Color space : YUV
Chroma subsampling : 4:2:0
Bit depth : 8 bits
Scan type : Progressive
Compression mode : Lossy
Bits/(Pixel*Frame) : 0.216
Stream size : 1.06 GiB (78%)
Writing library : XviD 1.2.1 (UTC 2008-12-04)
Audio #1
ID : 1
Format : AC-3
Format/Info : Audio Coding 3
Mode extension : CM (complete main)
Codec ID : 2000
Duration : 1h 51mn
Bit rate mode : Constant
Bit rate : 384 Kbps
Channel(s) : 2 channels
Channel positions : Front: L R
Sampling rate : 48.0 KHz
Bit depth : 16 bits
Compression mode : Lossy
Stream size : 306 MiB (22%)
Alignment : Split accross interleaves
Interleave, duration : 96 ms (2.88 video frames)
Interleave, preload duration : 96 ms
Screenshots

Winter Escape - Inside With Plein Air Painter Kevin Macpherson [repost]

Winter Escape - Inside With Plein Air Painter Kevin Macpherson [repost]

Winter Escape - Inside With Plein Air Painter Kevin Macpherson [repost]

Winter Escape - Inside With Plein Air Painter Kevin Macpherson [repost]

For more, Visit my AH-blog

no mirrors please, Follow The Rules