Subcategories

Point Blank - Learn How to Make Trance Music with Mike Koglin's Trance Course

Posted By: ParRus
Point Blank - Learn How to Make Trance Music with Mike Koglin's Trance Course

Point Blank - Learn How to Make Trance Music with Mike Koglin's Trance Course
English | MOV + Project files | 960 x 600 | AVC ~460 Kbps | 12 fps
AAC | 128 kbps | 32.0 KHz | 2 channels | 06:22:06 | 4.31 GB
Genre: Video Tutorial / Sound Processing (2012)

From the Pro Producer series of music production courses, this four week Logic course will reveal the secrets behind the sound of producers such as Tiesto, Armin van Buuren, Deadmau5 and Above & Beyond using the know how of online music production school Point Blank. Grammy-nominated producer Mike Koglin with Mark Pledger demonstrate how to make your own trance drum tracks, bass patches and synth lead lines using Logic Studio. You will learn to arrange and mix your tracks for maximum dancefloor impact by uploading your music each week for DVR™- expert analysis and video feedback from Mike and Mark themselves. And with Point Blank music college partners Anjunabeats checking out the student tunes each month, you also get an invaluable opportunity to have your tracks heard by one of the genre’s most respected labels. If you want to learn how to make trance this is the best course out there. Check out the student reviews at foot of this page.
Content:
Week 1: Origins, Legends & Making Beats
Overview: The key elements in a Trance tune
Sample editing and building kits in Ultrabeat
Electronic drum sounds
Programming beats & quantizing techniques
Week 2: The Musical Elements
Bass: sound design using ES1 & ES2
Tricks for creating Trance basslines
Creating lead sounds and riffs with ES1 & ES2
Pads and string sounds
Week 3: Effects & Textures
Creative use of FX, working with vocals
Sidechaining
Creating downfillers/uprisers
Noise and synth oscillators and automation
Week 4: Arrangement and Mixdown
Arrangement
Breakdown and buildup examples
Creating your mixdown
Guide to using compression and EQ.

Total Price: £395.00
Project files are included
More Info: http://www.pointblankonline.net/trance-course-logic.php

General
Complete name : 00_01_introducing_ultrabeat.mov
Format : MPEG-4
Format profile : QuickTime
Codec ID : qt
File size : 11.4 MiB
Duration : 2mn 42s
Overall bit rate : 589 Kbps
Encoded date : UTC 2009-08-21 15:50:34
Tagged date : UTC 2009-08-21 15:50:35
Writing library : Apple QuickTime
com.apple.quicktime.software : ScreenFlow
Video #2
ID : 2
Format : AVC
Format/Info : Advanced Video Codec
Format profile : Main@L3.1
Format settings, CABAC : No
Format settings, ReFrames : 2 frames
Codec ID : avc1
Codec ID/Info : Advanced Video Coding
Duration : 2mn 42s
Bit rate : 460 Kbps
Width : 960 pixels
Height : 600 pixels
Display aspect ratio : 1.600
Frame rate mode : Constant
Frame rate : 12.000 fps
Color space : YUV
Chroma subsampling : 4:2:0
Bit depth : 8 bits
Scan type : Progressive
Bits/(Pixel*Frame) : 0.067
Stream size : 8.91 MiB (78%)
Language : English
Encoded date : UTC 2009-08-21 15:48:44
Tagged date : UTC 2009-08-21 15:50:35
Color primaries : BT.709-5, BT.1361, IEC 61966-2-4, SMPTE RP177
Transfer characteristics : BT.709-5, BT.1361
Matrix coefficients : BT.709-5, BT.1361, IEC 61966-2-4 709, SMPTE RP177
Audio #1
ID : 1
Format : AAC
Format/Info : Advanced Audio Codec
Format profile : LC
Codec ID : 40
Duration : 2mn 42s
Bit rate mode : Constant
Bit rate : 128 Kbps
Channel(s) : 2 channels
Channel positions : Front: L R
Sampling rate : 32.0 KHz
Compression mode : Lossy
Stream size : 2.44 MiB (21%)
Language : English
Encoded date : UTC 2009-08-21 15:48:43
Tagged date : UTC 2009-08-21 15:50:35
Material_Duration : 162336
Material_StreamSize : 2558048
Screenshots

Point Blank - Learn How to Make Trance Music with Mike Koglin's Trance Course

Point Blank - Learn How to Make Trance Music with Mike Koglin's Trance Course

Point Blank - Learn How to Make Trance Music with Mike Koglin's Trance Course

For more, Visit my AH-blog

no mirrors please, Follow The Rules