Subcategories

Learn To Play The Brazilian Way (Repost)

Posted By: Polik88
Learn To Play The Brazilian Way (Repost)

Learn To Play The Brazilian Way (Repost)
DVDRip | English | AVI/XVID 25.000 fps 1286 Kbps | 608x352 | MP3 128 Kbps 48.0 khz | 1h 8mn | 700 MB
Genre: Video Training

Simon Clifford, founder of the Brazilian Football Academy, presents this coaching programme that reveals the football secrets of players from the 5 times World Champions, Brazil. Amongst the move and tricks included are those used by Ronaldo, Ronadinho, Rivaldo, Roberto Carlos, Pele and Jairzinho. Also included is footage of the team during the 2002 World Cup.
General
Complete name : Learn To Play The Brazilian Way.avi
Format : AVI
Format/Info : Audio Video Interleave
File size : 700 MiB
Duration : 1h 8mn
Overall bit rate mode : Variable
Overall bit rate : 1 430 Kbps
Writing application : VirtualDubMod 1.5.4.1 (build 2178/release)
Writing library : VirtualDubMod build 2178/release

Video
ID : 0
Format : MPEG-4 Visual
Format profile : Advanced Simple@L5
Format settings, BVOP : 1
Format settings, QPel : No
Format settings, GMC : No warppoints
Format settings, Matrix : Custom
Codec ID : XVID
Codec ID/Hint : XviD
Duration : 1h 8mn
Bit rate : 1 286 Kbps
Width : 608 pixels
Height : 352 pixels
Display aspect ratio : 1.727
Frame rate : 25.000 fps
Color space : YUV
Chroma subsampling : 4:2:0
Bit depth : 8 bits
Scan type : Progressive
Compression mode : Lossy
Bits/(Pixel*Frame) : 0.240
Stream size : 630 MiB (90%)
Writing library : XviD 1.1.0 (UTC 2005-11-22)

Audio
ID : 1
Format : MPEG Audio
Format version : Version 1
Format profile : Layer 3
Mode : Joint stereo
Mode extension : MS Stereo
Codec ID : 55
Codec ID/Hint : MP3
Duration : 1h 8mn
Bit rate mode : Variable
Bit rate : 128 Kbps
Channel(s) : 2 channels
Sampling rate : 48.0 KHz
Compression mode : Lossy
Stream size : 63.9 MiB (9%)
Alignment : Aligned on interleaves
Interleave, duration : 24 ms (0.60 video frame)
Interleave, preload duration : 161 ms
Writing library : LAME3.96r
Encoding settings : -m j -V 4 -q 2 -lowpass 17.5 –abr 128
Language : English

Screenshots

Learn To Play The Brazilian Way (Repost)

Learn To Play The Brazilian Way (Repost)

Learn To Play The Brazilian Way (Repost)

no mirrors please, Follow The Rules
Visit Polik88 Blog Here
no password