Subcategories

Lick Library - Jam With Lenny Kravitz 2 DVD (2013)

Posted By: house23
Lick Library - Jam With Lenny Kravitz 2 DVD (2013)

Lick Library - Jam With Lenny Kravitz 2 DVD (2013)
DVD5 | VOB | MPEG2 3919kbps | English | 720x576 | 25fps | 3h 15mins | AC3 stereo 192kbps | 8.44 GB
Genre: Video Training

Jam With Lenny Kravitz is the prefect double DVD set for any Guitarist who would like to be able to play like Lenny Kravitz. Jam With Lenny Kravitz is expertly taught by highly sought after freelance Guitarist and Producer Michael Casswell. The DVD and CD set has over 3 hours of lessons and Guitar jam tracks.

Always On The Run
American Woman
Are You Gonna Go My Way
Believe
Circus
It Aint's Over 'til It's Over
Rock And Roll Is Dead


Format : MPEG-PS
File size : 506 MiB
Duration : 16mn 32s
Overall bit rate : 4 281 Kbps
Video #224
ID : 224 (0xE0)
Format : MPEG Video
Format version : Version 2
Format profile : Main@Main
Format settings, Matrix : Default
Duration : 16mn 32s
Bit rate mode : Variable
Bit rate : 3 919 Kbps
Nominal bit rate : 7 000 Kbps
Width : 720 pixels
Height : 576 pixels
Display aspect ratio : 16:9
Frame rate : 25.000 fps
Standard : PAL
Colorimetry : 4:2:0
Scan type : Interlaced
Scan order : Bottom Field First
Bits/(Pixel*Frame) : 0.378
Stream size : 464 MiB (92%)
Audio #128
ID : 128 (0x80)
Format : AC-3
Format/Info : Audio Coding 3
Duration : 16mn 32s
Bit rate mode : Constant
Bit rate : 192 Kbps
Channel(s) : 2 channels
Channel positions : L R
Sampling rate : 48.0 KHz
Stream size : 22.7 MiB (4%)


Lick Library - Jam With Lenny Kravitz 2 DVD (2013)

Lick Library - Jam With Lenny Kravitz 2 DVD (2013)

Lick Library - Jam With Lenny Kravitz 2 DVD (2013)


No mirrors please