Subcategories

Lightroom 5 Essentials: 05 Creating Prints and Books (2013) [repost]

Posted By: house23
Lightroom 5 Essentials: 05 Creating Prints and Books (2013) [repost]

Lightroom 5 Essentials: 05 Creating Prints and Books (2013)
MOV | AVC 144kbps | English | 960x600 | 15fps | 4h 11mins | AAC stereo 128kbps | 2.04 GB
Genre: Video Training

Creating Prints and Books is part of author Chris Orwig's investigation of Adobe Lightroom 5, and focuses on the Print and Books modules, which can be used to create high-quality prints and proofs and design custom layouts for books. Chris briefly reviews how to correct and paint away gamut issues and other problems in the Develop module and shows how to take advantage of templates and collections. The course also shows how to adjust print job settings for contact sheets, single image prints, and print packages, and the final chapters guide photographers through the step-by-step process of building and printing a book from Lightroom.

A bonus chapter introduces a quick condensed workflow for experienced designers who want to learn about changes to the process in Lightroom 5.

Topics include:
Creating better prints by soft proofing
Choosing a soft proof rendering input
Creating a custom template
Customizing the print layout style
Adjusting print to JPG settings
Reviewing prints
Creating collections for a book project
Using Auto Layout
Using guides and cell controls
Swapping image position in a book
Changing the book background
Working with typography
Adding captions
Designing a book cover
Exporting to PDF
Ordering a printed copy of your book from Blurb


Format : QuickTime
Format/Info : Original Apple specifications
File size : 14.1 MiB
Duration : 7mn 11s
Overall bit rate : 274 Kbps
Encoded date : UTC 2013-07-16 22:22:14
Tagged date : UTC 2013-07-16 22:22:14
Writing library : Apple QuickTime
Copyright : lynda.com
Video #2
ID : 2
Format : AVC
Format/Info : Advanced Video Codec
Format profile : Main@L3.1
Format settings, CABAC : Yes
Format settings, ReFrames : 3 frames
Codec ID : avc1
Codec ID/Info : Advanced Video Coding
Duration : 7mn 11s
Bit rate mode : Variable
Bit rate : 144 Kbps
Width : 960 pixels
Height : 600 pixels
Display aspect ratio : 1.600
Frame rate mode : Constant
Frame rate : 15.000 fps
Resolution : 24 bits
Colorimetry : 4:2:0
Scan type : Progressive
Bits/(Pixel*Frame) : 0.017
Stream size : 7.38 MiB (52%)
Encoded date : UTC 2013-07-16 22:22:14
Tagged date : UTC 2013-07-16 22:22:14
Audio #1
ID : 1
Format : AAC
Format/Info : Advanced Audio Codec
Format version : Version 4
Format profile : LC
Format settings, SBR : No
Format settings, PS : Yes
Codec ID : 40
Duration : 7mn 11s
Bit rate mode : Variable
Bit rate : 128 Kbps
Maximum bit rate : 131 Kbps
Channel(s) : 2 channels
Channel positions : Front: L R
Sampling rate : 48.0 KHz
Resolution : 16 bits
Stream size : 6.58 MiB (47%)
Encoded date : UTC 2013-07-16 22:22:14
Tagged date : UTC 2013-07-16 22:22:14


Lightroom 5 Essentials: 05 Creating Prints and Books (2013) [repost]

Lightroom 5 Essentials: 05 Creating Prints and Books (2013) [repost]

Lightroom 5 Essentials: 05 Creating Prints and Books (2013) [repost]


No mirrors please