Subcategories

Lyle McDonald - Applied Nutrition for Mixed Sports (2 DVD-set)

Posted By: GoodPoster
Lyle McDonald - Applied Nutrition for Mixed Sports (2 DVD-set)

Lyle McDonald - Applied Nutrition for Mixed Sports (2 DVD-set)
DVDRip | English | AVI + PDF Table Book | 640 x 360 | XviD ~1031 kbps | 29.97 fps
MP3 128 kbps | 44.1 KHz | 2 channels | 1.5 GB
Genre: Video Training / Health

Applied Nutrition for Mixed Sports examines the topic of nutrition for what are referred to as mixed sports. This includes almost all team sports along with many individual sports such as boxing, mixed martial arts and some track and field events.

Basically any sport that has requirements for both endurance and strength/power is considered a mixed sport. Because of the often odd nature of performance requirements, optimizing nutrition for these sports often presents problems that aren’t seen in either the pure strength/power or pure endurance sports.

The book, as well as the accompanying 2 DVD set, approaches the problem in an applied fashion building up the topic of nutrition from the ground up to present a comprehensive examination of how mixed sports athletes can optimize their nutrition.

This product started life as a seminar I did in Vancouver at Simon Fraser University in 2009 for their football and soccer teams on applied sports nutrition. But rather than just slap the DVD together with the handouts and slides, I decided to write a complete stand alone book (derived primarily from the handouts). Of course, the original DVD seminar is included along with the Powerpoint slides and the full package includes everything shown below.

Book Table of Contents

Introduction
Chapter 1: Some Unapplied Theory
Chapter 2: General and Performance Nutrition
Chapter 3: Energy Intake
Chapter 4: Dietary Protein
Chapter 5: Dietary Fat
Chapter 6: Dietary Carbohydrates
Chapter 7: Vitamins and Minerals
Chapter 8: Meal Planning
Chapter 9: Around Workout/Competition Nutrition
Chapter 10: Hydration and Cramping
Chapter 11: Supplements
Chapter 12: Changing Body Composition
Chapter 13: Putting it All Together
Chapter 14: The End

DVD Table of Contents

Disk 1
Module 1: Introduction + A Little Unapplied Theory (12:41)
Module 2: General and Performance Nutrition (35:32)
Module 3: Meal Planning (14:19)
Module 4: Around Workout Nutrition (32:13)

Disk 2
Module 5: Hydration and Cramping (15:43)
Module 6: Supplements (39:23)
Module 7: Changing Body Composition (18:22)
Module 8: Putting it All Together (11:03)

More info:
http://www.bodyrecomposition.com/applied-sports-nutrition-for-mixed-sports

C:\Users\Administrator\Desktop\Lyle McDonald - Applied Nutrition for Mixed Sports (2 DVD set)\Module 1 Some Unapplied Theory.avi
General
Complete name : C:\Users\Administrator\Desktop\Lyle McDonald - Applied Nutrition for Mixed Sports (2 DVD set)\Module 1 Some Unapplied Theory.avi
Format : AVI
Format/Info : Audio Video Interleave
File size : 107 MiB
Duration : 12mn 42s
Overall bit rate : 1 172 Kbps
Writing application : Magic0515
Video #0
ID : 0
Format : MPEG-4 Visual
Format profile : AdvancedSimple@L4
Format settings, BVOP : No
Format settings, QPel : No
Format settings, GMC : No warppoints
Format settings, Matrix : Default (H.263)
Codec ID : XVID
Codec ID/Hint : XviD
Duration : 12mn 42s
Bit rate : 1 031 Kbps
Width : 640 pixels
Height : 360 pixels
Display aspect ratio : 16:9
Frame rate : 29.970 fps
Resolution : 24 bits
Colorimetry : 4:2:0
Scan type : Progressive
Bits/(Pixel*Frame) : 0.149
Stream size : 93.7 MiB (88%)
Writing library : Magic0432
Audio #1
ID : 1
Format : MPEG Audio
Format version : Version 1
Format profile : Layer 3
Codec ID : 55
Codec ID/Hint : MP3
Duration : 12mn 42s
Bit rate mode : Constant
Bit rate : 128 Kbps
Channel(s) : 2 channels
Sampling rate : 44.1 KHz
Resolution : 16 bits
Stream size : 11.6 MiB (11%)
Alignment : Aligned on interleaves
Interleave, duration : 26 ms (0.78 video frame)


Screenshot

Lyle McDonald - Applied Nutrition for Mixed Sports (2 DVD-set)

Lyle McDonald - Applied Nutrition for Mixed Sports (2 DVD-set)

Lyle McDonald - Applied Nutrition for Mixed Sports (2 DVD-set)

Lyle McDonald - Applied Nutrition for Mixed Sports (2 DVD-set)

Sample pages of the book

Lyle McDonald - Applied Nutrition for Mixed Sports (2 DVD-set)

Lyle McDonald - Applied Nutrition for Mixed Sports (2 DVD-set)


-No mirrors, follow the rules-

Lyle McDonald - Applied Nutrition for Mixed Sports (2 DVD-set)