Subcategories

Groove3: Mastering in the Box Explained (2013)

Posted By: ParRus
Groove3: Mastering in the Box Explained (2013)

Groove3: Mastering in the Box Explained
English | MP4 | 1024 x 768 | AVC ~258 Kbps | 30 fps
AAC | 126 kbps | 44.1 KHz | 2 channels | 03:37:08 | 609 MB
Genre: Video Tutorial / Sound Processing (2013)

Everyone who uses a DAW at some point will attempt to "master" their production. Many however, will fail. This new series from studio wiz Michael Costa will show you the basics of mastering in the box using typical plug-ins and how to address many common issues found in recordings, as well as as more advanced techniques to solve other trickier problems.
Michael starts off with an introduction to mixing in the box as well as a video on what happens during mastering and why. He then dives in and shows you the basics plug-ins used for mastering and how to apply them and when.
Content:
01. Introduction 03m:43s
02. What Happens & Why 12m:20s
03. EQ 10m:15s
04. Compression 17m:24s
05. Limiting 14m:59s
06. Dithering 05m:03s
07. The Harsh Mix 08m:32s
08. The Thumpy Mix 09m:23s
09. The Loud Hi-Hat 07m:45s
10. MS Intro 06m:00s
11. MS Fix Imbalance 06m:38s
12. MS Widening 14m:22s
13. Phase 09m:29s
14. Vinyl Considerations 07m:35s
15. The Flat Mix #1 12m:55s
16. The Flat Mix #2 19m:45s
17. Stem Mastering Pt. 1 11m:08s
18. Stem Mastering Pt. 2 14m:24s
19. Mastering Session 25m:29s

More Info: www.groove3.com/str/Mastering-Explained.html

General
Complete name : 10MSIntro_HD.mp4
Format : MPEG-4
Format profile : Base Media / Version 2
Codec ID : mp42
File size : 16.7 MiB
Duration : 6mn 0s
Overall bit rate mode : Variable
Overall bit rate : 390 Kbps
Movie name : MS Intro
Album/Performer : Michael Costa
Part/Position : 1
Part/Total : 1
Track name/Position : 10
Track name/Total : 19
Performer : Mastering in the Box Explained
Genre : Video Training
Encoded date : UTC 2013-02-01 03:22:17
Tagged date : UTC 2013-01-31 10:50:56
Copyright : 2013 Groove 3 Inc.
desc : Michael introduces the concept of MS processing, showing some plug-ins that exploit it and pave the way for the tutorials that follow.
ldes : Michael introduces the concept of MS processing, showing some plug-ins that exploit it and pave the way for the tutorials that follow.
stik : 10
iTunMOVI : <?xml version="1.0" encoding="UTF-8"?> / <!DOCTYPE plist PUBLIC "-//Apple//DTD PLIST 1.0//EN" "http://www.apple.com/DTDs/PropertyList-1.0.dtd"> / <plist version="1.0"> / <dict> / <key>directors</key> / <array> / <dict> / <key>name</key> / <string>Michael Costa</string> / </dict> / </array> / <key>producers</key> / <array> / <dict> / <key>name</key> / <string>Groove 3 Inc.</string> / </dict> / </array> / </dict> / </plist>
tvsh : Mastering in the Box Explained
tves : 10
tvnn : www.groove3.com
Video #1
ID : 1
Format : AVC
Format/Info : Advanced Video Codec
Format profile : Main@L3.1
Format settings, CABAC : Yes
Format settings, ReFrames : 4 frames
Codec ID : avc1
Codec ID/Info : Advanced Video Coding
Duration : 6mn 0s
Bit rate mode : Variable
Bit rate : 258 Kbps
Width : 1 024 pixels
Height : 768 pixels
Display aspect ratio : 4:3
Frame rate mode : Constant
Frame rate : 30.000 fps
Color space : YUV
Chroma subsampling : 4:2:0
Bit depth : 8 bits
Scan type : Progressive
Bits/(Pixel*Frame) : 0.011
Stream size : 11.1 MiB (66%)
Writing library : x264 core 120
Encoding settings : cabac=1 / ref=2 / deblock=1:0:0 / analyse=0x1:0x111 / me=hex / subme=6 / psy=1 / psy_rd=1.00:0.00 / mixed_ref=0 / me_range=16 / chroma_me=1 / trellis=0 / 8x8dct=0 / cqm=0 / deadzone=21,11 / fast_pskip=1 / chroma_qp_offset=-2 / threads=12 / sliced_threads=0 / nr=0 / decimate=1 / interlaced=0 / bluray_compat=0 / constrained_intra=0 / bframes=2 / b_pyramid=2 / b_adapt=1 / b_bias=0 / direct=1 / weightb=0 / open_gop=0 / weightp=2 / keyint=300 / keyint_min=30 / scenecut=40 / intra_refresh=0 / rc_lookahead=40 / rc=2pass / mbtree=1 / bitrate=258 / ratetol=1.0 / qcomp=0.60 / qpmin=3 / qpmax=69 / qpstep=4 / cplxblur=20.0 / qblur=0.5 / ip_ratio=1.40 / aq=1:1.00
Encoded date : UTC 2013-02-01 03:22:17
Tagged date : UTC 2013-02-01 03:22:59
Color primaries : BT.709-5, BT.1361, IEC 61966-2-4, SMPTE RP177
Transfer characteristics : BT.709-5, BT.1361
Matrix coefficients : BT.709-5, BT.1361, IEC 61966-2-4 709, SMPTE RP177
Audio #2
ID : 2
Format : AAC
Format/Info : Advanced Audio Codec
Format profile : LC
Codec ID : 40
Duration : 6mn 0s
Bit rate mode : Variable
Bit rate : 126 Kbps
Maximum bit rate : 245 Kbps
Channel(s) : 2 channels
Channel positions : Front: L R
Sampling rate : 44.1 KHz
Compression mode : Lossy
Stream size : 5.43 MiB (32%)
Language : English
Encoded date : UTC 2013-02-01 03:22:17
Tagged date : UTC 2013-02-01 03:22:58
Screenshots

Groove3: Mastering in the Box Explained (2013)

Groove3: Mastering in the Box Explained (2013)

Groove3: Mastering in the Box Explained (2013)

Groove3: Mastering in the Box Explained (2013)

For more, Visit my AH-blog

no mirrors please, Follow The Rules