Subcategories

Photoshop Lightroom 3 Advanced Techniques

Posted By: house23
Photoshop Lightroom 3 Advanced Techniques

Photoshop Lightroom 3 Advanced Techniques
MOV | AVC 181kbps | English | 960x600 | 15fps | 6h 45mins | AAC stereo 96kbps | 2.75 GB
Genre: Video Training

In Photoshop Lightroom 3 Advanced Techniques, photographer Chris Orwig shows how to master the subtleties of Lightroom 3 and maximize its efficiency. The course begins with an in-depth exploration of Lightroom catalogs to keep track of photos, collections, keywords, stacks, and more. Along the way, Chris shows how to integrate Bridge and Photoshop in the Lightroom workflow and shares advanced techniques, including image editing with the adjustment brush, automating actions, using plug-ins and extensions, exporting to email or an FTP server, and more. Exercise files are included with the course.

Topics include:
Maximizing file compatibility
Speeding up the workflow with automation
Working with catalogs, collections, and folders
Diagramming multiple catalogs and computers
Performing and restoring backups
Setting up tethered capture
Advanced retouching techniques, such as eye enhancement and blemish reduction
Working with color profiles
Perfecting prints from Lightroom
Creating custom watermarks
Making a custom web gallery
Exporting and publishing photos


Format : QuickTime
Format/Info : Original Apple specifications
File size : 12.6 MiB
Duration : 5mn 54s
Overall bit rate mode : Variable
Overall bit rate : 298 Kbps
Encoded date : UTC 2010-11-22 18:38:58
Tagged date : UTC 2010-11-22 18:38:58
Writing library : Apple QuickTime
Copyright : lynda.com
Video #1
ID : 1
Format : AVC
Format/Info : Advanced Video Codec
Format profile : Main@L3.1
Format settings, CABAC : Yes
Format settings, ReFrames : 6 frames
Codec ID : avc1
Codec ID/Info : Advanced Video Coding
Duration : 5mn 54s
Source duration : 5mn 54s
Bit rate : 181 Kbps
Width : 960 pixels
Height : 600 pixels
Display aspect ratio : 16:10
Original display aspect ratio : 16:10
Frame rate mode : Constant
Frame rate : 15.000 fps
Standard : Component
Color space : YUV
Chroma subsampling : 4:2:0
Bit depth : 8 bits
Scan type : Progressive
Bits/(Pixel*Frame) : 0.021
Stream size : 7.67 MiB (61%)
Source stream size : 8.45 MiB (67%)
Language : English
Encoded date : UTC 2010-11-22 18:38:58
Tagged date : UTC 2010-11-22 18:38:58
Color primaries : BT.601 NTSC
Transfer characteristics : BT.709
Matrix coefficients : BT.601
mdhd_Duration : 354867
Audio #2
ID : 2
Format : AAC
Format/Info : Advanced Audio Codec
Format profile : LC
Codec ID : 40
Duration : 5mn 54s
Bit rate mode : Variable
Bit rate : 96.0 Kbps
Maximum bit rate : 108 Kbps
Channel(s) : 2 channels
Channel positions : Front: L R
Sampling rate : 48.0 KHz
Compression mode : Lossy
Stream size : 4.05 MiB (32%)
Language : English
Encoded date : UTC 2010-11-22 18:38:58
Tagged date : UTC 2010-11-22 18:38:58


Photoshop Lightroom 3 Advanced Techniques

Photoshop Lightroom 3 Advanced Techniques

Photoshop Lightroom 3 Advanced Techniques

Photoshop Lightroom 3 Advanced Techniques


No mirrors please