Subcategories

Mel Reeves - Play Jazz Guitar Now!

Posted By: ParRus
Mel Reeves - Play Jazz Guitar Now!

Mel Reeves - Play Jazz Guitar Now!
DVDRip | English | AVI | 1280 x 720 | XviD ~1277 Kbps | 25 fps
MP3 | 128 kbps | 44.1 KHz | 2 channels | 01:03:05 | 638 MB
Genre: eLearning Video / Playing the guitar

At last, Mel Reeves - the country's leading writer & presenter of music tuition videos - has turned his attention to the world of jazz guitar. Whether you are a true jazz fan or simply want to add a little jazz to your armoury of guitar styles you can now learn how to play those cool chords & stunning solos. Special features: Styles, Instrumentals, Theory & Technique sections are in chapters for easy acces and learning. Using Mel's method you really can Play Jazz Guitar Now!
General
Complete name : Mel reeves - Play jazz guitar now!.avi
Format : AVI
Format/Info : Audio Video Interleave
File size : 638 MiB
Duration : 1h 3mn
Overall bit rate : 1 414 Kbps
Video #0
ID : 0
Format : MPEG-4 Visual
Format profile : Advanced Simple@L5
Format settings, BVOP : No
Format settings, QPel : No
Format settings, GMC : No warppoints
Format settings, Matrix : Default (H.263)
Codec ID : XVID
Codec ID/Hint : XviD
Duration : 1h 3mn
Bit rate : 1 277 Kbps
Width : 1 280 pixels
Height : 720 pixels
Display aspect ratio : 16:9
Frame rate : 25.000 fps
Color space : YUV
Chroma subsampling : 4:2:0
Bit depth : 8 bits
Scan type : Progressive
Compression mode : Lossy
Bits/(Pixel*Frame) : 0.055
Stream size : 576 MiB (90%)
Writing library : XviD 1.2.1 (UTC 2008-12-04)
Audio #1
ID : 1
Format : MPEG Audio
Format version : Version 1
Format profile : Layer 3
Codec ID : 55
Codec ID/Hint : MP3
Duration : 1h 3mn
Bit rate mode : Constant
Bit rate : 128 Kbps
Channel(s) : 2 channels
Sampling rate : 44.1 KHz
Compression mode : Lossy
Stream size : 57.8 MiB (9%)
Alignment : Split accross interleaves
Interleave, duration : 52 ms (1.31 video frame)
Screenshots

Mel Reeves - Play Jazz Guitar Now!

Mel Reeves - Play Jazz Guitar Now!

Mel Reeves - Play Jazz Guitar Now!

Mel Reeves - Play Jazz Guitar Now!

For more, Visit my AH-blog

no mirrors please, Follow The Rules