Subcategories

Quick Studies in Oil with Craig Nelson

Posted By: ParRus
Quick Studies in Oil with Craig Nelson

Quick Studies in Oil with Craig Nelson
DVD5 | English | VOB | 720 x 480 | MPEG2 ~5889 kbps | 29.970 fps
AC-3 | 192 Kbps | 48.0 KHz | 2 channels | 01:18:53 | 3.45 GB
Genre: Video Tutorial / Drawing, Painting

Learn more in less time with Quick Studies. Craig Nelson's exciting one-hour sessions help you hone your skills without spending days on a single painting. Craig's dynamic approach works with any subject matter. In this workshop, he paints a floral from life and a figure from photo reference. In both demonstrations, you'll see a time-tested approach to developing oil paintings. Craig breaks his process into five basic stages, allowing you to identify your weaknesses at every step. You'll learn to pick the right brush, evaluate color, and rework problem areas. As you gain confidence, you'll begin to eliminate unimportant details and say more with less.

As Craig says, "For painting skills, it is far better to paint 30 one-hour paintings than one 30-hour painting." Get started on your first exhilarating hour in Quick Studies in Oil with Craig Nelson.
More Info: http://ccpvideos.com/product/quick-studies-oil-craig-nelson

General
Complete name : VTS_01_3.VOB
Format : MPEG-PS
File size : 1 024 MiB
Duration : 23mn 4s
Overall bit rate mode : Variable
Overall bit rate : 6 204 Kbps
Video #224
ID : 224 (0xE0)
Format : MPEG Video
Format version : Version 2
Format profile : Main@Main
Format settings, BVOP : Yes
Format settings, Matrix : Custom
Format settings, GOP : M=3, N=15
Duration : 23mn 4s
Bit rate mode : Variable
Bit rate : 5 889 Kbps
Maximum bit rate : 7 500 Kbps
Width : 720 pixels
Height : 480 pixels
Display aspect ratio : 4:3
Frame rate : 29.970 fps
Standard : NTSC
Color space : YUV
Chroma subsampling : 4:2:0
Bit depth : 8 bits
Scan type : Interlaced
Scan order : Bottom Field First
Compression mode : Lossy
Bits/(Pixel*Frame) : 0.569
Stream size : 972 MiB (95%)
Audio #189-128
ID : 189 (0xBD)-128 (0x80)
Format : AC-3
Format/Info : Audio Coding 3
Mode extension : CM (complete main)
Muxing mode : DVD-Video
Duration : 23mn 4s
Bit rate mode : Constant
Bit rate : 192 Kbps
Channel(s) : 2 channels
Channel positions : Front: L R
Sampling rate : 48.0 KHz
Bit depth : 16 bits
Compression mode : Lossy
Delay relative to video : -378ms
Stream size : 31.7 MiB (3%)
Screenshots

Quick Studies in Oil with Craig Nelson

Quick Studies in Oil with Craig Nelson

Quick Studies in Oil with Craig Nelson

Quick Studies in Oil with Craig Nelson

Quick Studies in Oil with Craig Nelson


For more, Visit my AH-blog

no mirrors please, Follow The Rules