Subcategories

Rachael Ray - Fun and Fast (2007)

Posted By: Polik88
Rachael Ray - Fun and Fast (2007)

Rachael Ray - Fun and Fast (2007)
DVDRip | English | AVI/XVID 29.970 fps 901 Kbps | 640x480 | AC3 224 Kbps 48.0 khz | 2 channels | 2.12 GB
Genre: Video Training / Cooking

Rachael Ray brings her patented pep to her show 30 MINUTE MEALS, proving that it doesn't take hours to make a healthy, delicious meal. Get enough recipes to cover a few weeks worth of dinners with this three pack.. FASTA PASTA: Rachael Ray brings her patented pep to her show 30 MINUTE MEALS, proving that it doesn't take hours to make a healthy, delicious meal. These four episodes from her show features recipes for Vodka Cream Pasta, Broiled Lamb Chops, Gemelli with Roasted Pepper Sauce, and more. End things on a sweet note with her recipe for Chocolate Cups with Whipped Cream. Yum-o!
A LITTLE SPICE IS NICE: Rachael Ray brings her patented pep to her show 30 MINUTE MEALS, proving that it doesn't take hours to make a healthy, delicious meal. A
LITTLE SPICE IS NICE features four episodes of Ray's Food Network show with recipes for Spicy Chicken with Peppers and Basil, Crab Cakes with Roasted Red Pepper Sauce, Chorizo Quesadillas, and more. Be sure to leave room for dessert with Ray's recipe for Ice Cream with Toasted Coconut Topping.
FAST & LIGHT: Rachael Ray brings her patented pep to her show 30 MINUTE MEALS, proving that it doesn't take hours to make a healthy, delicious meal. Break out the E.V.O.O. for four episodes worth of healthy recipes including Spanish Style Snapper, Tuna Steak au Poivre, Asparagus Wrapped with Prosciutto, and more. Finish off a light meal with a refreshing Lemon Sorbet or a sweet Sunset Sangria.
General
Complete name :RACHEL RAY FAST LIGHT.Title2.DVDRip.avi
Format : AVI
Format/Info : Audio Video Interleave
File size : 182 MiB
Duration : 22mn 21s
Overall bit rate : 1 136 Kbps
Movie name : RACHEL RAY FAST LIGHT.Title2.DVDRip
Director : FireLily
Writing application : Lavf51.10.0
Original source form/Name : RACHEL RAY FAST LIGHT

Video
ID : 0
Format : MPEG-4 Visual
Format profile : Simple@L3
Format settings, BVOP : No
Format settings, QPel : No
Format settings, GMC : No warppoints
Format settings, Matrix : Default (H.263)
Codec ID : XVID
Codec ID/Hint : XviD
Duration : 22mn 21s
Bit rate : 901 Kbps
Width : 640 pixels
Height : 480 pixels
Display aspect ratio : 4:3
Frame rate : 29.970 fps
Color space : YUV
Chroma subsampling : 4:2:0
Bit depth : 8 bits
Scan type : Progressive
Compression mode : Lossy
Bits/(Pixel*Frame) : 0.098
Stream size : 144 MiB (79%)
Writing library : XviD 1.1.2 (UTC 2006-11-01)

Audio
ID : 1
Format : AC-3
Format/Info : Audio Coding 3
Mode extension : CM (complete main)
Format settings, Endianness : Big
Codec ID : 2000
Duration : 22mn 21s
Bit rate mode : Constant
Bit rate : 224 Kbps
Channel(s) : 2 channels
Channel positions : Front: L R
Sampling rate : 48.0 KHz
Bit depth : 16 bits
Compression mode : Lossy
Stream size : 35.8 MiB (20%)
Alignment : Aligned on interleaves
Interleave, duration : 32 ms (0.96 video frame)

Screenshots

Rachael Ray - Fun and Fast (2007)

Rachael Ray - Fun and Fast (2007)

Rachael Ray - Fun and Fast (2007)

no mirrors please, Follow The Rules
Visit Polik88 Blog Here
no password