Subcategories

Rent Mr Motivator: All New BLT Workout (2006)

Posted By: Polik88
Rent Mr Motivator: All New BLT Workout (2006)

Rent Mr Motivator: All New BLT Workout (2006)
DVDRip | English | AVI/XVID 25.000 fps 2037 Kbps | 640x352 | MP3 128 Kbps 48.0 khz | 2 channels | 1.25 GB
Genre: Video Training

Get Fit, Lose Weight and Have Fun! Mr. Motivator is back, bursting with personality, in his All New Bums, Legs & Tums Workout. For the first time ever on DVD, the brand new BLT workout features Real People achieving Real Results shot in beautiful Jamaica and all to the sound of Soca Calypso music. Mr. Motivator will be your own personal trainer with 11 x 7 minute fun workouts to get you fit including: - Fun Calypso Workout - Upper Body Conditioning - Bikini Body Workout - Mr. M's Daily Dozen - Bums, Legs & Tums - The Party Workout!
General
Complete name : Mr_Motivator - Create a Workout.avi
Format : AVI
Format/Info : Audio Video Interleave
File size : 1.07 GiB
Duration : 1h 10mn
Overall bit rate : 2 175 Kbps
Movie name : Mr_Motivator - Create a Workout
Writing application : VirtualDubMod 1.5.10.2 (build 2540/release)
Writing library : VirtualDubMod build 2540/release
Copyright : Olu6ka

Video
ID : 0
Format : MPEG-4 Visual
Format profile : Advanced Simple@L5
Format settings, BVOP : 1
Format settings, QPel : No
Format settings, GMC : No warppoints
Format settings, Matrix : Custom
Codec ID : XVID
Codec ID/Hint : XviD
Duration : 1h 10mn
Bit rate : 2 037 Kbps
Width : 640 pixels
Height : 352 pixels
Display aspect ratio : 16:9
Frame rate : 25.000 fps
Color space : YUV
Chroma subsampling : 4:2:0
Bit depth : 8 bits
Scan type : Progressive
Compression mode : Lossy
Bits/(Pixel*Frame) : 0.362
Stream size : 1.00 GiB (94%)
Writing library : XviD 57

Audio
ID : 1
Format : MPEG Audio
Format version : Version 1
Format profile : Layer 3
Mode : Joint stereo
Mode extension : MS Stereo
Codec ID : 55
Codec ID/Hint : MP3
Duration : 1h 10mn
Bit rate mode : Constant
Bit rate : 128 Kbps
Channel(s) : 2 channels
Sampling rate : 48.0 KHz
Compression mode : Lossy
Stream size : 64.5 MiB (6%)
Alignment : Split accross interleaves
Interleave, duration : 40 ms (1.00 video frame)
Interleave, preload duration : 500 ms
Writing library : LAME3.98.2

Screenshots

Rent Mr Motivator: All New BLT Workout (2006)

Rent Mr Motivator: All New BLT Workout (2006)

Rent Mr Motivator: All New BLT Workout (2006)

no mirrors please, Follow The Rules
Visit Polik88 Blog Here
no password