Subcategories

Roundwood Timber Framing: Building Naturally Using Local Resources

Posted By: ParRus
Roundwood Timber Framing: Building Naturally Using Local Resources

Roundwood Timber Framing: Building Naturally Using Local Resources
DVDRip | English | MP4 | 720 x 400 | AVC ~1183 kbps | 24.939 fps
AAC | 96 kbps | 48.0 KHz | 2 channels | 1h 50mn | 965 MB
Genre: eLearning Video / Homebuilding, Repair, Woodworking

This definitive manual marks the birth of a new vernacular for the 21st century. Over 400 color photographs and step-by-step instructions guide you through the building of anything from a garden shed to your own woodland house. This practical how to book will unquestionably be a benchmark for sustainable building using renewable local resources and evolving traditional skills to create durable, ecological, and beautiful buildings.
General
Complete name : 01. Roundwood Timber Framing.mp4
Format : MPEG-4
Format profile : Base Media / Version 2
Codec ID : mp42
File size : 764 MiB
Duration : 1h 23mn
Overall bit rate mode : Variable
Overall bit rate : 1 286 Kbps
Encoded date : UTC 2013-01-12 16:51:36
Tagged date : UTC 2013-01-12 18:51:27
Video #1
ID : 1
Format : AVC
Format/Info : Advanced Video Codec
Format profile : High@L3.0
Format settings, CABAC : Yes
Format settings, ReFrames : 4 frames
Codec ID : avc1
Codec ID/Info : Advanced Video Coding
Duration : 1h 23mn
Bit rate mode : Variable
Bit rate : 1 183 Kbps
Width : 720 pixels
Height : 400 pixels
Display aspect ratio : 16:9
Frame rate mode : Variable
Frame rate : 24.939 fps
Original frame rate : 25.000 fps
Minimum frame rate : 0.222 fps
Maximum frame rate : 100.000 fps
Color space : YUV
Chroma subsampling : 4:2:0
Bit depth : 8 bits
Scan type : Progressive
Bits/(Pixel*Frame) : 0.165
Stream size : 703 MiB (92%)
Writing library : x264 core 129 r2230 1cffe9f
Encoding settings : cabac=1 / ref=3 / deblock=1:0:0 / analyse=0x3:0x113 / me=umh / subme=7 / psy=1 / psy_rd=1.00:0.10 / mixed_ref=1 / me_range=16 / chroma_me=1 / trellis=1 / 8x8dct=1 / cqm=0 / deadzone=21,21 / fast_pskip=1 / chroma_qp_offset=-3 / threads=3 / lookahead_threads=1 / sliced_threads=0 / nr=0 / decimate=1 / interlaced=0 / bluray_compat=0 / constrained_intra=0 / bframes=4 / b_pyramid=2 / b_adapt=1 / b_bias=0 / direct=3 / weightb=1 / open_gop=0 / weightp=1 / keyint=250 / keyint_min=25 / scenecut=40 / intra_refresh=0 / rc_lookahead=45 / rc=crf / mbtree=1 / crf=23.0 / qcomp=0.60 / qpmin=0 / qpmax=69 / qpstep=4 / ip_ratio=1.40 / aq=2:1.00
Encoded date : UTC 2013-01-12 16:51:37
Tagged date : UTC 2013-01-12 18:51:27
Audio #2
ID : 2
Format : AAC
Format/Info : Advanced Audio Codec
Format profile : LC
Codec ID : 40
Duration : 1h 23mn
Bit rate mode : Variable
Bit rate : 96.0 Kbps
Channel(s) : 2 channels
Channel positions : Front: L R
Sampling rate : 48.0 KHz
Compression mode : Lossy
Stream size : 57.9 MiB (8%)
Encoded date : UTC 2013-01-12 16:51:37
Tagged date : UTC 2013-01-12 18:51:27
Screenshots

Roundwood Timber Framing: Building Naturally Using Local Resources

Roundwood Timber Framing: Building Naturally Using Local Resources

Roundwood Timber Framing: Building Naturally Using Local Resources

Roundwood Timber Framing: Building Naturally Using Local Resources

For more Exclusive material, Visit my AH-blog

Roundwood Timber Framing: Building Naturally Using Local Resources