Subcategories

Speedskating Video: Destination Speed (2001)

Posted By: Polik88
Speedskating Video: Destination Speed (2001)

Speedskating Video: Destination Speed (2001)
English | AVI | 352x288 | MPEG Video 1152 Kbps 25.000 fps | MPEG Audio 224 Kbps 44.1 khz | 40mn 47s | 409 MB
Genre: Video Training

Want to ride on the roller with the wind at 40 km / h? Then this wonderful training video for beginners, filmed farntsuzskoy team - for you. Qualitative survey, close-ups, graphics. You can learn the basics of Speed-skating. Exercises are presented to Lego and fun.
General
Complete name : Speedskating Video Destination Speed.avi
Format : CDXA/MPEG-PS
File size : 409 MiB
Duration : 40mn 47s
Overall bit rate : 1 412 Kbps

Video
ID : 224 (0xE0)
Format : MPEG Video
Format version : Version 1
Format settings, BVOP : Yes
Format settings, Matrix : Default
Duration : 40mn 47s
Bit rate : 1 152 Kbps
Width : 352 pixels
Height : 288 pixels
Display aspect ratio : 4:3
Frame rate : 25.000 fps
Standard : PAL
Color space : YUV
Bit depth : 8 bits
Scan type : Progressive
Compression mode : Lossy
Bits/(Pixel*Frame) : 0.454
Stream size : 336 MiB (82%)

Audio
ID : 192 (0xC0)
Format : MPEG Audio
Format version : Version 1
Format profile : Layer 2
Duration : 40mn 30s
Bit rate mode : Constant
Bit rate : 224 Kbps
Channel(s) : 2 channels
Sampling rate : 44.1 KHz
Compression mode : Lossy
Stream size : 64.9 MiB (16%)

Screenshots

Speedskating Video: Destination Speed (2001)

Speedskating Video: Destination Speed (2001)

Speedskating Video: Destination Speed (2001)

no mirrors please, Follow The Rules
Visit Polik88 Blog Here
no password