Subcategories

Spiritual Technology - Zivorad M. Slavinski (2009) (Repost)

Posted By: Polik88
Spiritual Technology - Zivorad M. Slavinski (2009) (Repost)

Spiritual Technology - Zivorad M. Slavinski (2009) (Repost)
DVDRip | English | AVI/XVID 25.000 fps 654 Kbps | 352x240 | MP3 99.0 Kbps 44.1 khz | 9.5 hours | 3.06 GB
Genre: Psychology

After many months of work and preparation my Spiritual Technology DVD video for computers is finally ready for the distribution. I would like to give the credit for its technical exellence to Nikola Duper which made it the way I have not seen before.
It will be extremely useful instrument not only for people which participated Peat and DP4 workshops, but also for the Certified Processors, Candidates for Trainers and Trainers themselves.
In this video there are no empty and amuzing conversations, nor any irrelevant timewasting. Just direct approach to the core of practical methods of Spiritual Technology.
This DVD video has got nine and half of hours of effective presentation of the practice.
Under topic of Deep Peat you will find:
The introduction to Peat
The explanation of Deep Peat
Important questions and answers on Deep Peat (1)
About Primordial Polarities or Primes
Session number 1
When do we put the light into the client
The importance of the dramatization
Session number 2
Important questions and answers (2)
Objective and subjective problems
Problems which have more then one roots
Finishing the process: opposition, putting the future under control, forgiveness, light, circular processing
What if the client still find differences in „checking questions“
Technical details
Important questions and answers (3)
Muscle test
Important questions and answers (4)
A Trainer processes a client
Group discussion after the session
Little Magical Method
Tips on Deep Peat technique
About opposition and Pleroma
Holistic nature of the Peat process
Choosing our reaction and personal responsibillity
One participant processes another ending with Primes neutralization
Circular processing: The client identifies with her mother
Acceptance of responsibility and explanation of Circular processing
Circular processing: important questions and answers
How to support the client
When we should start the process with the Circular processing
A positive experience trap
Two kinds of charge: red and green
When we should use Basic Peat, Deep Peat or DP4
Grounding the person
Bipolar disorder, paranoia and depression
„Fishing“ for opposite polarity
Session number 3
Higher „I“
The explanation fo the self-processing

Under topic of DP4 you will find:
The theory of the method
How to create and use identities
Addictions (dependencies)
DP4 session number 1
DP4 session number 2
How to end the process successfully
Money and Spiritual Technology
How to analize characteristics we would like to integrate
Giving and receiving

Under topic of Basic Peat you will find:
Basic Peat
Basic Peat session on joint pain

Under topic of Finger Tip method you will find:
Finger Tip method for the elimination of traumas
Acceptance exercises
Snap-shot exercises
Session of Finger Tip method
Comments of this method

General
Complete name : Basic_Peat-40_xvid.avi
Format : AVI
Format/Info : Audio Video Interleave
File size : 9.94 MiB
Duration : 1mn 48s
Overall bit rate mode : Variable
Overall bit rate : 765 Kbps
Writing application : MEncoder Sherpya-SVN-r32492-4.2.5
Writing library : MPlayer

Video
ID : 0
Format : MPEG-4 Visual
Format profile : Simple@L3
Format settings, BVOP : No
Format settings, QPel : No
Format settings, GMC : No warppoints
Format settings, Matrix : Default (H.263)
Codec ID : XVID
Codec ID/Hint : XviD
Duration : 1mn 48s
Bit rate : 654 Kbps
Width : 352 pixels
Height : 240 pixels
Display aspect ratio : 3:2
Frame rate : 25.000 fps
Standard : NTSC
Color space : YUV
Chroma subsampling : 4:2:0
Bit depth : 8 bits
Scan type : Progressive
Compression mode : Lossy
Bits/(Pixel*Frame) : 0.310
Stream size : 8.48 MiB (85%)
Writing library : XviD 1.2.1 (UTC 2008-12-04)

Audio
ID : 1
Format : MPEG Audio
Format version : Version 1
Format profile : Layer 3
Mode : Joint stereo
Mode extension : MS Stereo
Codec ID : 55
Codec ID/Hint : MP3
Duration : 1mn 48s
Bit rate mode : Variable
Bit rate : 99.0 Kbps
Channel(s) : 2 channels
Sampling rate : 44.1 KHz
Compression mode : Lossy
Stream size : 1.28 MiB (13%)
Alignment : Aligned on interleaves
Interleave, duration : 26 ms (0.65 video frame)
Interleave, preload duration : 485 ms

Screenshots

Spiritual Technology - Zivorad M. Slavinski (2009) (Repost)

Grimm Fairy Tales Presents - Wonderland: Through The Looking Glass #1-5

Grimm Fairy Tales Presents - Wonderland: Through The Looking Glass #1-5

no mirrors please, Follow The Rules
Visit Polik88 Blog Here
no password

Grimm Fairy Tales Presents - Wonderland: Through The Looking Glass #1-5