Subcategories

The Art of Knitting & Crochet: Volume 2

Posted By: ParRus
The Art of Knitting & Crochet: Volume 2

The Art of Knitting & Crochet: Volume 2
DVD9 | English | VOB | 720 x 480 | MPEG2 ~5756 kbps | 29.970 fps
AC-3 | 192 kbps | 48.0 KHz | 2 channels | 3h 30mn | 7.54 GB
Genre: eLearning Video / Knitting

Whether you are a beginner or an advanced knitter the second DVD in The Art of Knitting series: The Art of Knitting & Crochet 2 is packed full of all-new video presentations, clear concise visual demonstrations that make learning to knit and crochet EASY. Expert instructors will teach you: A Review of Knitting Basics Intermediate Knitting Skills 2 The Art of Crochet A Sock Workshop and Felting. There is also a new Stitch Library an updated Resource Guide Patterns Tips the exclusive A-Z INDEX that connects you to any topic instantly and more Music-To-Knit-By. Best of all… you are learning one-on-one the new DVD way: play the lessons over and over even in slow motions. Run time: 210 minutes.
General
Complete name : VTS_01_1.VOB
Format : MPEG-PS
File size : 1 024 MiB
Duration : 23mn 35s
Overall bit rate : 6 069 Kbps
Writing library : encoded by TMPGEnc (ver. 2.524.63.181)
Video #224
ID : 224 (0xE0)
Format : MPEG Video
Format version : Version 2
Format profile : Main@Main
Format settings, BVOP : Yes
Format settings, Matrix : Default
Duration : 23mn 35s
Bit rate : 5 756 Kbps
Width : 720 pixels
Height : 480 pixels
Display aspect ratio : 4:3
Frame rate : 29.970 fps
Standard : NTSC
Color space : YUV
Chroma subsampling : 4:2:0
Bit depth : 8 bits
Compression mode : Lossy
Bits/(Pixel*Frame) : 0.556
Stream size : 971 MiB (95%)
Writing library : TMPGEnc 2.524.63.181
Audio #189-128
ID : 189 (0xBD)-128 (0x80)
Format : AC-3
Format/Info : Audio Coding 3
Mode extension : CM (complete main)
Muxing mode : DVD-Video
Duration : 23mn 35s
Bit rate mode : Constant
Bit rate : 192 Kbps
Channel(s) : 2 channels
Channel positions : Front: L R
Sampling rate : 48.0 KHz
Bit depth : 16 bits
Compression mode : Lossy
Delay relative to video : -197ms
Stream size : 32.4 MiB (3%)
Text #189-32
ID : 189 (0xBD)-32 (0x20)
Format : RLE
Format/Info : Run-length encoding
Muxing mode : DVD-Video
Delay relative to video : 1s 972ms
Screenshots

The Art of Knitting & Crochet: Volume 2

The Art of Knitting & Crochet: Volume 2

The Art of Knitting & Crochet: Volume 2

The Art of Knitting & Crochet: Volume 2

The Art of Knitting & Crochet: Volume 2

For more, Visit my AH-blog

no mirrors please, Follow The Rules