Subcategories

Jack Bruce - The Cream of Cream

Posted By: ParRus
Jack Bruce - The Cream of Cream

Jack Bruce - The Cream of Cream
DVD5 | English | VOB | 720 x 480 | MPEG2 ~4912 Kbps | 29.970 fps
AC-3 | 192 kbps | 48.0 KHz | 2 channels | 01:02:00 | 2.28 GB
Genre: eLearning Video / Playing the guitar

On this groundbreaking DVD, bassist Jack Bruce teams up with legendary guitarist Gary Moore and powerhouse drummer Gary Husband to revisit some of the classic Cream songs that he wrote and sang on, including "White Room," to "Sunshine of Your Love," and more.
In addition to showing the correct way to play the bass lines to the songs listed above, Jack also offers an in-depth look at his unique right-hand picking style, use of pedal tones and melodic playing, and shares his invaluable thoughts on bass improvisation and practicing.
Features
Songs include:
"White Room"
"I Feel Free"
"N.S.U."
"Sleepy Time Time"
"Politician"
"Sunshine of Your Love"
Artist: Jack Bruce, Cream
Publisher: Rittor Music
Medium: DVD
62 minutes
5" W x 8" L

General
Complete name : VTS_01_1.VOB
Format : MPEG-PS
File size : 1 024 MiB
Duration : 27mn 29s
Overall bit rate mode : Variable
Overall bit rate : 5 208 Kbps
Video #224
ID : 224 (0xE0)
Format : MPEG Video
Format version : Version 2
Format profile : Main@Main
Format settings, BVOP : Yes
Format settings, Matrix : Default
Format settings, GOP : M=3, N=15
Duration : 27mn 29s
Bit rate mode : Variable
Bit rate : 4 912 Kbps
Maximum bit rate : 7 000 Kbps
Width : 720 pixels
Height : 480 pixels
Display aspect ratio : 4:3
Frame rate : 29.970 fps
Standard : NTSC
Color space : YUV
Chroma subsampling : 4:2:0
Bit depth : 8 bits
Scan type : Interlaced
Scan order : Top Field First
Compression mode : Lossy
Bits/(Pixel*Frame) : 0.474
Stream size : 966 MiB (94%)
Audio #189-128
ID : 189 (0xBD)-128 (0x80)
Format : AC-3
Format/Info : Audio Coding 3
Mode extension : CM (complete main)
Muxing mode : DVD-Video
Duration : 27mn 28s
Bit rate mode : Constant
Bit rate : 192 Kbps
Channel(s) : 2 channels
Channel positions : Front: L R
Sampling rate : 48.0 KHz
Bit depth : 16 bits
Compression mode : Lossy
Delay relative to video : -67ms
Stream size : 37.7 MiB (4%)
Screenshots

Jack Bruce - The Cream of Cream

Jack Bruce - The Cream of Cream

Jack Bruce - The Cream of Cream

Jack Bruce - The Cream of Cream

For more, Visit my AH-blog

no mirrors please, Follow The Rules