Subcategories

The Mike Colón Experience 4-day Intensive: Wedding Photography (Day One & Day Two)

Posted By: ParRus
The Mike Colón Experience 4-day Intensive: Wedding Photography (Day One & Day Two)

The Mike Colón Experience 4-day Intensive: Wedding Photography (Day One & Day Two)
DVD5 | English | VOB | 720 x 480 | MPEG2 ~2148 kbps | 29.970 fps
AC-3 | 192 Kbps | 48.0 KHz | 2 channels | ~2 hours | 4.17 GB
Genre: eLearning Video / Photography

This educational photography DVD was filmed on location in Newport Beach, CA during a very special and exclusive 4-day intensive course Mike Colón gave for a diverse group of 20 photographers who flew in from 14 different states.
THERE IS NO BETTER INVESTMENT IN YOUR BUSINESS THAN EDUCATION! Sit back and soak in the information as Mike Col?n gives hands-on training to a diverse group of twenty photographers from 14 different states coming together in Newport Beach, California.

Learn from 4 classroom lectures, 3 live shoots, 2 slideshows, and a mock sales presentation inside Col?n’s state-of-the-art studio. Lectures include: The Col?n Marketing Strategy, Building your Creative Niche, Digital Workflow, and Lighting Techniques. This video is packed with great information that will provide you with the valuable tools and marketing tips you need to take your business to the next level!

General
Complete name : VTS_02_2.VOB
Format : MPEG-PS
File size : 1 024 MiB
Duration : 59mn 57s
Overall bit rate mode : Variable
Overall bit rate : 2 387 Kbps
Video #224
ID : 224 (0xE0)
Format : MPEG Video
Format version : Version 2
Format profile : Main@Main
Format settings, BVOP : Yes
Format settings, Matrix : Custom
Format settings, GOP : M=3, N=15
Duration : 59mn 57s
Bit rate mode : Variable
Bit rate : 2 148 Kbps
Maximum bit rate : 7 000 Kbps
Width : 720 pixels
Height : 480 pixels
Display aspect ratio : 4:3
Frame rate : 29.970 fps
Standard : NTSC
Color space : YUV
Chroma subsampling : 4:2:0
Bit depth : 8 bits
Scan type : Interlaced
Scan order : Bottom Field First
Compression mode : Lossy
Bits/(Pixel*Frame) : 0.207
Stream size : 921 MiB (90%)
Audio #189-128
ID : 189 (0xBD)-128 (0x80)
Format : AC-3
Format/Info : Audio Coding 3
Mode extension : CM (complete main)
Muxing mode : DVD-Video
Duration : 59mn 57s
Bit rate mode : Constant
Bit rate : 192 Kbps
Channel(s) : 2 channels
Channel positions : Front: L R
Sampling rate : 48.0 KHz
Bit depth : 16 bits
Compression mode : Lossy
Delay relative to video : -534ms
Stream size : 82.3 MiB (8%)
Screenshots

The Mike Colón Experience 4-day Intensive: Wedding Photography (Day One & Day Two)

The Mike Colón Experience 4-day Intensive: Wedding Photography (Day One & Day Two)

The Mike Colón Experience 4-day Intensive: Wedding Photography (Day One & Day Two)

The Mike Colón Experience 4-day Intensive: Wedding Photography (Day One & Day Two)

For more, Visit my AH-blog

no mirrors please, Follow The Rules