Subcategories

Virtual Tutorial For ArchiCAD 12 (2009) (Repost)

Posted By: Polik88
Virtual Tutorial For ArchiCAD 12 (2009) (Repost)

Virtual Tutorial For ArchiCAD 12 (2009) (Repost)
English | MOV | 1024x700 | AVC 955 Kbps 6.000 fps | AAC 48.0 Kbps 22.05 khz | 1 channel | 6.94 GB
Genre: Video Training

The Virtual Tutor Series of training DVD's has assisted people in learning and using ArchiCAD efficiently since Version 6.5. six editions and nearly a decade later the tutorial disks have grown from CD's to DVD's. Tips on how to use the tools, create documentation, render scenes, file management, explanations of environments and general tips all go into each Virtual Tutor.
General
Complete name : 3D2D.mov
Format : MPEG-4
Format profile : QuickTime
Codec ID : qt
File size : 67.8 MiB
Duration : 9mn 27s
Overall bit rate : 1 004 Kbps
Encoded date : UTC 2007-06-18 23:37:25
Tagged date : UTC 2007-06-18 23:37:33
Writing library : Apple QuickTime

Video
ID : 2
Format : AVC
Format/Info : Advanced Video Codec
Format profile : Main@L3.1
Format settings, CABAC : No
Format settings, ReFrames : 2 frames
Format settings, GOP : M=2, N=6
Codec ID : avc1
Codec ID/Info : Advanced Video Coding
Duration : 9mn 27s
Bit rate : 955 Kbps
Width : 1 024 pixels
Height : 700 pixels
Display aspect ratio : 3:2
Frame rate mode : Constant
Frame rate : 6.000 fps
Color space : YUV
Chroma subsampling : 4:2:0
Bit depth : 8 bits
Scan type : Progressive
Bits/(Pixel*Frame) : 0.222
Stream size : 64.5 MiB (95%)
Language : English
Encoded date : UTC 2007-06-18 23:36:27
Tagged date : UTC 2007-06-18 23:37:33
Color primaries : BT.709-5, BT.1361, IEC 61966-2-4, SMPTE RP177
Transfer characteristics : BT.709-5, BT.1361
Matrix coefficients : BT.709-5, BT.1361, IEC 61966-2-4 709, SMPTE RP177

Audio
ID : 1
Format : AAC
Format/Info : Advanced Audio Codec
Format profile : LC
Codec ID : 40
Duration : 9mn 27s
Source duration : 9mn 27s
Bit rate mode : Constant
Bit rate : 48.0 Kbps
Channel(s) : 1 channel
Channel positions : Front: C
Sampling rate : 22.05 KHz
Compression mode : Lossy
Stream size : 3.17 MiB (5%)
Source stream size : 3.17 MiB (5%)
Language : English
Encoded date : UTC 2007-06-18 23:36:27
Tagged date : UTC 2007-06-18 23:37:33

Screenshots

Virtual Tutorial For ArchiCAD 12 (2009) (Repost)

Virtual Tutorial For ArchiCAD 12 (2009) (Repost)

Virtual Tutorial For ArchiCAD 12 (2009) (Repost)

no mirrors please, Follow The Rules
Visit Polik88 Blog Here
no password

Virtual Tutorial For ArchiCAD 12 (2009) (Repost)