Subcategories

Advanced Editing Workflows in Lightroom (2015)

Posted By: ParRus
Advanced Editing Workflows in Lightroom (2015)

Advanced Editing Workflows in Lightroom
WEBRip | English | MP4 + Project Files | 1280 x 720 | AVC ~792 kbps | 15 fps
AAC | 92.1 Kbps | 44.1 KHz | 2 channels | 1h 40mn | 1.95 GB
Genre: Video Tutorial / Adobe Photoshop (2015)

In this Lightroom tutorial, we’ll look at some real-world tips and techniques for enhancing your photographs. Lightroom is much more than just a replacement for Camera Raw and Bridge. It’s a powerful tool, capable of eliminating your need for other image editing software such as Photoshop. By the end of this Lightroom training, you’ll have learned a variety of advanced features so you’ll not only speed up your workflow but also will make it more efficient.
Contents:
1 Introduction and project overview Watch it now 00:42
The Slideshow Module
2 The Slideshow Module 10:05
The Print Module
3 The Print Module 10:38
The Web Module
4 The Web Module 09:37
Converting to Black and White
5 Converting to Black and White 08:28
Advanced Color Techniques
6 Advanced Color Techniques 08:26
Retouching in Lightroom
7 Retouching in Lightroom 07:50
Plugins and Presets
8 Plugins and Presets 07:47
Camera Calibrations
9 Camera Calibrations 07:19
Lightroom and Photoshop
10 Lightroom and Photoshop 08:48
Helpful settings and shortcuts
11 Helpful settings and shortcuts 08:39
Tethered shooting
12 Tethered shooting 07:53

also You can look my other last: Adobe Photoshop-posts

General
Complete name : 8.mp4
Format : MPEG-4
Format profile : Base Media
Codec ID : isom
File size : 49.6 MiB
Duration : 7mn 47s
Overall bit rate : 889 Kbps
Writing application : Lavf56.15.104

Video
ID : 1
Format : AVC
Format/Info : Advanced Video Codec
Format profile : High@L3.1
Format settings, CABAC : Yes
Format settings, ReFrames : 4 frames
Codec ID : avc1
Codec ID/Info : Advanced Video Coding
Duration : 7mn 47s
Bit rate : 792 Kbps
Nominal bit rate : 904 Kbps
Width : 1 280 pixels
Height : 720 pixels
Display aspect ratio : 16:9
Frame rate mode : Variable
Frame rate : 15.000 fps
Minimum frame rate : 14.925 fps
Maximum frame rate : 15.152 fps
Color space : YUV
Chroma subsampling : 4:2:0
Bit depth : 8 bits
Scan type : Progressive
Bits/(Pixel*Frame) : 0.057
Stream size : 44.2 MiB (89%)
Writing library : x264 core 118 r2085 8a62835
Encoding settings : cabac=1 / ref=4 / deblock=1:0:0 / analyse=0x3:0x113 / me=umh / subme=6 / psy=1 / psy_rd=1.00:0.00 / mixed_ref=1 / me_range=16 / chroma_me=1 / trellis=1 / 8x8dct=1 / cqm=0 / deadzone=21,11 / fast_pskip=1 / chroma_qp_offset=-2 / threads=24 / sliced_threads=0 / nr=0 / decimate=1 / interlaced=0 / bluray_compat=0 / constrained_intra=0 / bframes=4 / b_pyramid=2 / b_adapt=1 / b_bias=0 / direct=3 / weightb=1 / open_gop=0 / weightp=2 / keyint=75 / keyint_min=25 / scenecut=40 / intra_refresh=0 / rc_lookahead=40 / rc=2pass / mbtree=1 / bitrate=904 / ratetol=1.0 / qcomp=0.60 / qpmin=10 / qpmax=51 / qpstep=4 / cplxblur=20.0 / qblur=0.5 / ip_ratio=1.40 / aq=1:1.00

Audio
ID : 2
Format : AAC
Format/Info : Advanced Audio Codec
Format profile : LC
Codec ID : 40
Duration : 7mn 47s
Bit rate mode : Constant
Bit rate : 92.1 Kbps
Channel(s) : 2 channels
Channel positions : Front: L R
Sampling rate : 44.1 KHz
Compression mode : Lossy
Stream size : 5.14 MiB (10%)

Screenshots

Advanced Editing Workflows in Lightroom (2015)

Advanced Editing Workflows in Lightroom (2015)

Advanced Editing Workflows in Lightroom (2015)

For more Exclusive material, Visit my AH-blog

Advanced Editing Workflows in Lightroom (2015)