Subcategories

Alfred Ultimate Easy Play-Along The Rolling Stones

Posted By: ParRus
Alfred Ultimate Easy Play-Along The Rolling Stones

Alfred Ultimate Easy Play-Along The Rolling Stones
DVD9 | English | VIDEO_TS + MP3 + PDF Guide | 720 x 480 | MPEG2 ~2911 kbps | 29.970 fps
AC-3 192 Kbps 48.0 KHz | 2 channels | 2h 52mn | 7.82 GB
Genre: eLearning Video / Guitar lesson

10 Songs from "The World's Greatest Rock and Roll Band" If The Beatles were early rock's good guys in white hats, the Stones giddily took on the role of black-hatted bad boys. Powered through the years by Keith Richards' uncanny knack for gut-punching rock guitar riffs, the Stones have amazingly just celebrated 50 years of bad-boy rock! Amazingly, with now 50 years together as a band, The Stones formed in 1962 as a blues cover band.
It wasn't 'til Aftermath in 1966, their fourth U.K. release, that Mick and Keith wrote all the songs for an entire record, cementing one of the greatest writing partnerships in rock history, as well as starting Keith Richards' undeniable run as one of the genre's greatest riff writers. In this book you will learn all of Keef's amazing parts to 10 of the Stones' most classic songs, including many of his legendary Open G and Open E tuning riffs.

Alfred's Ultimate Easy Play-Along series features easy-to-play arrangements of guitar parts as played on classic original recordings in TAB and notation. The DVD that comes with every book contains FREE video lessons, so you'll be able to see up close how each part is played. And every book also includes MP3s and the TNT 2 software, so you can change the mixes, slow tracks down, isolate sections and licks, and loop parts for practice.

Plus, if you use the disc in a computer, you can access sound-alike and play-along MP3s of every tune, and our exclusive TNT 2 software that lets you create custom mixes for practice.

With Alfred's Ultimate Easy Play-Alongs, you can play your favorite songs!

Song list:

Brown Sugar
Can't You Hear Me Knocking
Gimme Shelter
Honky Tonk Women
Jumpin' Jack Flash
The Last Time
Paint It, Black
(I Can't Get No) Satisfaction
Wild Horses
You Can't Always Get What You Want

also You can find my other last: Guitar Lessons-posts

General
Complete name : VTS_03_1.VOB
Format : MPEG-PS
File size : 1 024 MiB
Duration : 45 min 13 s
Overall bit rate mode : Variable
Overall bit rate : 3 166 kb/s

Video
ID : 224 (0xE0)
Format : MPEG Video
Format version : Version 2
Format profile : Main@Main
Format settings, BVOP : Yes
Format settings, Matrix : Custom
Format settings, GOP : M=3, N=15
Duration : 45 min 13 s
Bit rate mode : Variable
Bit rate : 2 911 kb/s
Maximum bit rate : 5 700 kb/s
Width : 720 pixels
Height : 480 pixels
Display aspect ratio : 16:9
Frame rate : 29.970 (30000/1001) FPS
Standard : NTSC
Color space : YUV
Chroma subsampling : 4:2:0
Bit depth : 8 bits
Scan type : Progressive
Compression mode : Lossy
Bits/(Pixel*Frame) : 0.281
Time code of first frame : 01:00:00:00
Time code source : Group of pictures header
GOP, Open/Closed : Closed
Stream size : 941 MiB (92%)
Color primaries : BT.601 NTSC
Transfer characteristics : BT.601
Matrix coefficients : BT.601

Audio
ID : 189 (0xBD)-128 (0x80)
Format : AC-3
Format/Info : Audio Coding 3
Format settings, Endianness : Big
Muxing mode : DVD-Video
Duration : 45 min 12 s
Bit rate mode : Constant
Bit rate : 192 kb/s
Channel(s) : 2 channels
Channel positions : Front: L R
Sampling rate : 48.0 kHz
Frame rate : 31.250 FPS (1536 spf)
Bit depth : 16 bits
Compression mode : Lossy
Stream size : 62.1 MiB (6%)
Service kind : Complete Main

Menu
Screenshots

Alfred Ultimate Easy Play-Along The Rolling Stones

Alfred Ultimate Easy Play-Along The Rolling Stones

Alfred Ultimate Easy Play-Along The Rolling Stones

Alfred Ultimate Easy Play-Along The Rolling Stones

Alfred Ultimate Easy Play-Along The Rolling Stones

Alfred Ultimate Easy Play-Along The Rolling Stones

Exclusive eLearning Videos ParRus-blogadd to bookmarks

Feel free to contact me PM
when links are dead or want any repost

Alfred Ultimate Easy Play-Along The Rolling Stones