Subcategories

Auto Affiliate Funnel - Charles Kirkland

Posted By: ParRus
Auto Affiliate Funnel - Charles Kirkland

Auto Affiliate Funnel - Charles Kirkland
WEBRip | English | MP4 + PDF Guides | 1280 x 720 | AVC ~1132 kbps | 29.871 fps
AAC | 192 Kbps | 44.1 KHz | 2 channels | 50:41:00 | 10.6 GB
Genre: eLearning Video / Business, Marketing, Net: E-Commerce

“How I Create “Auto Affiliate Funnels” That Work In Almost Any Niche While I Hardly Lift A Finger!” Go ahead and join the Auto Affiliate Funnel program to claim your 3 new bonuses now: Jason Parker’s Psychological E-Mail Writing Formula Video Course Jason Parker’s Ultimate E-Mail Writing Video Workshop Jason Parker’s 7 Magic Scarcity E-Mails and Video Course
Why am I doing this?

Because once you use your Auto Affiliate Funnel to bring in leads and commissions, I want you to know how to extract maximum commissions from your new leads by becoming a master psychological e-mail writer.

Which means you’ll stuff your e-mails full of hidden psychology that makes subscribers itchy to buy.

You see, Jason Parker is one of a handful of e-mail writers who has certifications in basic and advanced hypnosis and NLP and has figured out how to use it in every e-mail I write.

More Info: Salepage
Value: $497


and You can watch my other last: Business-posts

General
Complete name : 3 Back Story.mp4
Format : MPEG-4
Format profile : Base Media / Version 2
Codec ID : mp42
File size : 56.7 MiB
Duration : 5mn 57s
Overall bit rate mode : Variable
Overall bit rate : 1 329 Kbps
Season : 0
Movie name : 3 Back Story
Part : 0


Video
ID : 1
Format : AVC
Format/Info : Advanced Video Codec
Format profile : High@L3.1
Format settings, CABAC : Yes
Format settings, ReFrames : 1 frame
Format settings, GOP : M=1, N=60
Codec ID : avc1
Codec ID/Info : Advanced Video Coding
Duration : 5mn 57s
Bit rate : 1 132 Kbps
Maximum bit rate : 1 742 Kbps
Width : 1 280 pixels
Height : 720 pixels
Display aspect ratio : 16:9
Frame rate mode : Variable
Frame rate : 29.871 fps
Minimum frame rate : 10.000 fps
Maximum frame rate : 30.000 fps
Color space : YUV
Chroma subsampling : 4:2:0
Bit depth : 8 bits
Scan type : Progressive
Bits/(Pixel*Frame) : 0.041
Stream size : 48.3 MiB (85%)
Tagged date : UTC 2017-01-02 03:43:42
Color range : Limited
Color primaries : BT.709
Transfer characteristics : BT.709
Matrix coefficients : BT.709

Audio
ID : 2
Format : AAC
Format/Info : Advanced Audio Codec
Format profile : LC
Codec ID : 40
Duration : 5mn 57s
Bit rate mode : Variable
Bit rate : 192 Kbps
Maximum bit rate : 200 Kbps
Channel(s) : 2 channels
Channel positions : Front: L R
Sampling rate : 44.1 KHz
Compression mode : Lossy
Stream size : 8.19 MiB (14%)
Title : IsoMedia File Produced by Google, 5-11-2011
Language : English
Encoded date : UTC 2017-01-02 03:43:41
Tagged date : UTC 2017-01-02 03:43:42

Menu
ID : 3
Codec ID : text
Duration : 5mn 57s
Encoded date : UTC 2017-02-06 08:42:02
Tagged date : UTC 2017-02-06 08:42:02
00:00:00.000 : Chapter 1

Screenshots

Auto Affiliate Funnel - Charles Kirkland

Auto Affiliate Funnel - Charles Kirkland

Auto Affiliate Funnel - Charles Kirkland

Auto Affiliate Funnel - Charles Kirkland

Exclusive eLearning Videos ParRus-blogadd to bookmarks

Auto Affiliate Funnel - Charles Kirkland