Subcategories

Baby Babble 2 - First Words: P B M

Posted By: TimMa
Baby Babble 2 - First Words: P B M

Baby Babble 2 - First Words: P B M
2007 | English | DVD-Rip | AVI | 320x240 | DivX 478 Kbps 29.970 fps | MP3 64 Kbps | Lenght: 00:49:58 | 193.79 Mb
Genre: eLearning/Children | Studio: Talking Child | Actors: Made by Speech Therapists | ASIN: B000Y1NNH2 | Subtitles: No

Baby Babble 2 - First Words with P, B, & M. The Baby Babble award winning series engages babies, toddlers, and beginning talkers with fascinating toys and charming music while introducing age-appropriate speech and language concepts, facial exercises, and sign language. Created by speech language pathologists, Baby Babble 2 focuses on the early developing sounds: P, B & M.
Why P, B & M? At around six months of age, babies begin to make sounds with their mouths partially closed. These sounds are called consonants and the first consonants that most babies say are /p/, /b/, and /m/. Baby Babble 2 introduces over 100 first words with these early developing sounds.
Babies love Baby Babble 2 because facial exercises captivate them, encourage mimicking, and enhance their oral motor development.
Toddlers love Baby Babble 2 because simple sign language inspires them and teaches them how to communicate before they can speak.
Beginning talkers love Baby Babble 2 because playful video sequences demonstrate simple words and sounds that motivate speech.
Parents love Baby Babble 2 because its parent tutorial teaches them the techniques that speech therapists use so that they can enhance the speech development of their precious child.
General
Complete name : D:\My Documents\Baby_Babble_2\Baby_Babble_2.divx
Format : AVI
Format/Info : Audio Video Interleave
File size : 198 MiB
Duration : 49mn 58s
Overall bit rate : 554 Kbps

Video
ID : 0
Format : MPEG-4 Visual
Format settings, BVOP : No
Format settings, QPel : No
Format settings, GMC : No warppoints
Format settings, Matrix : Default (H.263)
Codec ID : DX50
Codec ID/Hint : DivX 5
Duration : 49mn 58s
Bit rate : 478 Kbps
Width : 320 pixels
Height : 240 pixels
Display aspect ratio : 4:3
Frame rate : 29.970 fps
Color space : YUV
Chroma subsampling : 4:2:0
Bit depth : 8 bits
Scan type : Progressive
Compression mode : Lossy
Bits/(Pixel*Frame) : 0.208
Stream size : 171 MiB (86%)
Title : Video
Writing library : DivX 6.8.2 (UTC 2008-05-17)

Audio
ID : 1
Format : MPEG Audio
Format version : Version 2
Format profile : Layer 3
Mode : Dual mono
Codec ID : 55
Codec ID/Hint : MP3
Duration : 49mn 57s
Bit rate mode : Constant
Bit rate : 64.0 Kbps
Channel(s) : 2 channels
Sampling rate : 22.05 KHz
Compression mode : Lossy
Stream size : 22.9 MiB (12%)
Alignment : Split accross interleaves
Interleave, duration : 33 ms (1.00 video frame)
Interleave, preload duration : 500 ms
Title : Audio
Baby Babble 2 - First Words: P B M

Baby Babble 2 - First Words: P B M