Subcategories

InformedTrades – Basics of Trading Course

Posted By: ParRus
InformedTrades – Basics of Trading Course

InformedTrades – Basics of Trading Course
WEBRip | English | FLV | 320 x 240 | AVC ~221 Kbps | 15 fps
MP3 | 99.6 Kbps | 44.1 KHz | 2 channels | ~7 hours | 1.21 GB
Genre: eLearning Video / Forex, Trading, Stock

An introduction to the basic concepts needed to trade any market Basics of Trading Video Course from InformedTrades.com A 75 Lesson video course meant to give traders an introduction to the basics of trading as well as the components necessary to develop a profitable trading plan. InformedTrades.com Forex Trading Video Course
An introduction and in depth look at the forex market, including how to place trades, the fundamentals of the forex market, profiles of the main currency pairs, and factors to consider when choosing a forex broker.

InformedTrades.com Futures Trading Video Course

A video course covering the basics of futures and commodities trading for daytraders and longer term traders.

Module 1: Technical Analysis Basics
Module 2: Chart Patterns
Module 3: Technical Indicators
Module 4: Candlestick Chart Formations
Module 5: The Psychology of Trading
Module 6: Money Management
Module 7: Position Sizing
Module 8: Intro to Fundamental Analysis
Module 9: Economic Releases that Move the Markets
Module 10: Pulling It All Together

You can find my other useful: Trading-posts

General
Complete name : 138. An Introduction to DailyFX Plus.flv
Format : Flash Video
File size : 13.0 MiB
Duration : 5 min 56 s
Overall bit rate : 306 kb/s
Writing application : YouTube, Inc.
Tagging application : YouTube Metadata Injector.
flvsource : cdbp

Video
Format : Sorenson Spark
Codec ID : 2
Duration : 5 min 56 s
Bit rate : 221 kb/s
Width : 320 pixels
Height : 240 pixels
Display aspect ratio : 4:3
Frame rate mode : Constant
Frame rate : 15.000 FPS
Bit depth : 8 bits
Bits/(Pixel*Frame) : 0.192
Stream size : 9.41 MiB (72%)

Audio
Format : MPEG Audio
Format version : Version 2
Format profile : Layer 3
Codec ID : 2
Codec ID/Hint : MP3
Duration : 5 min 56 s
Bit rate mode : Constant
Bit rate : 64.0 kb/s
Channel(s) : 1 channel
Sampling rate : 22.05 kHz
Compression mode : Lossy
Stream size : 2.72 MiB (21%)
Writing library : LAME

Screenshots

InformedTrades – Basics of Trading Course

InformedTrades – Basics of Trading Course

InformedTrades – Basics of Trading Course

InformedTrades – Basics of Trading Course

InformedTrades – Basics of Trading Course

✅ Exclusive eLearning Videos ParRus-blogadd to bookmarks

Feel free to contact me PM
when links are dead or want any repost

InformedTrades – Basics of Trading Course