Building Mobile Web Sites Using Web Forms, Bootstrap, and HTML5 [repost]

Posted By: ParRus
Building Mobile Web Sites Using Web Forms, Bootstrap, and HTML5 [repost]

Building Mobile Web Sites Using Web Forms, Bootstrap, and HTML5
WEBRip | English | MP4 | 1024 x 768 | AVC ~990 kbps | 15 fps
AAC | 101 Kbps | 44.1 KHz | 2 channels | 4h 25mn | 1.14 GB
Genre: eLearning Video / Development, Programming

This course is specifically designed for the Web Forms developer who wants to learn to build modern, responsive, web applications. You can use Bootstrap, HTML5, CSS3, and jQuery within Web Forms.
Most of us build typical business web sites using ASP.NET Web Forms. We are now being asked to build these as mobile-aware web sites. Using Bootstrap is a great place to start and Web Forms can do all of this - without having to learn MVC. This course will teach you how to build business applications using Web Forms, Bootstrap, HMTL5 and CSS3. You will be shown how to create standard business pages such as a Member Log In, Forgot Password, Member Sign Up, About, Contact Us, Address, Member Profile, Credit Card, and many others. You will also learn how to create navigation for your business application.

Content:

1. Course Introduction
Introduction

2. Modern Web Apps Using Web Forms and Visual Studio
Introduction to Horizontal Navigation
HTML5 IntelliSense and Options in Visual Studio
Introduction to HTML5 Input Types
HTML5 Input Types Using TextBox Control
New HTML5 Attributes
Using the HTML5 Attributes
HTML Input Instead of TextBox
Using HTML Input Instead of TextBox
jQuery and Web Forms
Demo of jQuery and Web Forms
ViewState is not Always Needed
Disable ViewState Demo
Store ViewState on Server
Demo of ViewState on the Server
Introduction to Friendly URLs
Using Friendly URLs in Web Forms
Summary

3. Creating Horizontal Navigation for Your Application
Introduction to Horizontal Navigation
Building Our First Horizontal Navigation
Responsive Menu
Building a Responsive Menu Demo
Two-Line Navigation
Building a Two-Line Navigation Demo
Adding Drop Down Menus
Drop Down Menu Demo
Pull Menu Right
Pull Menu Right Demo
Add Avatar and Drop Down
Add Avatar and Drop Down Demo
Navigation in Master Page
Navigation in Master Page Demo
Tracking the Active Page
Tracking the Active Page Demo
Summary

4. Creating Sidebar Navigation for Your Application
Introduction to Sidebar Navigation
Simple Sidebar Demo
Sidebar With Accordion
Accordion Sidebar Demo
Island Sidebar
Island Sidebar Demo
Media Queries to Turn Off Side Navigation
Hide Sidebar Navigation Demo
Adding Transitions
Transitions Demo
Switch Between Text and Icons
Switch Between Text and Icons Demo
Top Navigation and Sidebar Together
Top Navigation and Sidebar Demo
Navigation in Master Pages
Master Page Demo
Summary

5. Creating Forms Over Data Pages
Introduction to Forms Over Data
The GridView Control
Making the GridView Responsive
GridView and DetailView Control Together
DetailView Demo
Developing an Input Form
An Input Form Using the Bootstrap Panel Classes
Code Required for an Input Form
Demo of Code for Input Form
GridView Using a Modal Input Form
Demo of a Modal Input Form
The Problem With Tables
An Alternate View of Data
The Repeater Control and Bootstrap
Using the Repeater, Alternate Layout, and Carousel
Using a Dual View Approach
Demo of a Dual View Approach
Summary

6. Standard Business Forms
Introduction to Standard Business Forms
Building a Master Page for Business Forms
The Master Page Sample
Business Forms and the Panel Control
Forgot Password Forms
Login Forms Overview
Login Form Samples
Registration Screens Overview
Registration Screen Samples
Member Profile Screens Overview
Member Profile Samples
Credit Card Screen Overview
Credit Card Screen Sample
Address Screen Overview
Address Screen Sample
Wizard Screen Overview
Wizard Screen Sample
Contact Us Overview
Contact Us Sample
About Us Overview
About Us Sample
Summary
Course Summary

also You can watch my other last: Programming-posts

General
Complete name : 41-Island Sidebar Demo.mp4
Format : MPEG-4
Format profile : Base Media / Version 2
Codec ID : mp42
File size : 13.7 MiB
Duration : 1mn 44s
Overall bit rate mode : Variable
Overall bit rate : 1 093 Kbps
Encoded date : UTC 2014-08-22 19:07:43
Tagged date : UTC 2014-08-22 19:07:53
Writing application : HandBrake 0.9.8 2012071700

Video
ID : 1
Format : AVC
Format/Info : Advanced Video Codec
Format profile : Baseline@L3.1
Format settings, CABAC : No
Format settings, ReFrames : 2 frames
Codec ID : avc1
Codec ID/Info : Advanced Video Coding
Duration : 1mn 44s
Duration_FirstFrame : 67ms
Bit rate : 990 Kbps
Width : 1 024 pixels
Height : 768 pixels
Display aspect ratio : 4:3
Frame rate mode : Constant
Frame rate : 15.000 fps
Color space : YUV
Chroma subsampling : 4:2:0
Bit depth : 8 bits
Scan type : Progressive
Bits/(Pixel*Frame) : 0.084
Stream size : 12.4 MiB (91%)
Writing library : x264 core 120
Encoding settings : cabac=0 / ref=2 / deblock=1:0:0 / analyse=0x1:0x111 / me=umh / subme=6 / psy=1 / psy_rd=1.00:0.00 / mixed_ref=1 / me_range=16 / chroma_me=1 / trellis=0 / 8x8dct=0 / cqm=0 / deadzone=21,11 / fast_pskip=1 / chroma_qp_offset=-2 / threads=12 / sliced_threads=0 / nr=0 / decimate=1 / interlaced=0 / bluray_compat=0 / constrained_intra=0 / bframes=0 / weightp=0 / keyint=50 / keyint_min=15 / scenecut=40 / intra_refresh=0 / rc_lookahead=40 / rc=crf / mbtree=1 / crf=20.0 / qcomp=0.60 / qpmin=3 / qpmax=69 / qpstep=4 / ip_ratio=1.40 / aq=1:1.00
Encoded date : UTC 2014-08-22 19:07:43
Tagged date : UTC 2014-08-22 19:07:53
Color range : Limited
Color primaries : BT.709
Transfer characteristics : BT.709
Matrix coefficients : BT.709

Audio
ID : 2
Format : AAC
Format/Info : Advanced Audio Codec
Format profile : LC
Codec ID : 40
Duration : 1mn 44s
Bit rate mode : Variable
Bit rate : 101 Kbps
Maximum bit rate : 125 Kbps
Channel(s) : 2 channels
Channel positions : Front: L R
Sampling rate : 44.1 KHz
Compression mode : Lossy
Stream size : 1.26 MiB (9%)
Title : Stereo
Language : English
Encoded date : UTC 2014-08-22 19:07:43
Tagged date : UTC 2014-08-22 19:07:53
Screenshots

Building Mobile Web Sites Using Web Forms, Bootstrap, and HTML5 [repost]

Building Mobile Web Sites Using Web Forms, Bootstrap, and HTML5 [repost]

Building Mobile Web Sites Using Web Forms, Bootstrap, and HTML5 [repost]

Building Mobile Web Sites Using Web Forms, Bootstrap, and HTML5 [repost]

Exclusive eLearning Videos ParRus-blogadd to bookmarks

Building Mobile Web Sites Using Web Forms, Bootstrap, and HTML5 [repost]