Subcategories

Lick Library: Classic Albums Black Sabbath Paranoid

Posted By: ParRus
Lick Library: Classic Albums Black Sabbath Paranoid

Lick Library: Classic Albums Black Sabbath Paranoid
WEBRip | English | MP4 | 1920 x 1080 | AVC ~1500 kbps | 25 fps
AAC 128 Kbps 48.0 KHz | 2 channels | 02:04:23 | 1.41 GB
Genre: eLearning Video / Guitar lesson

For the first time ever, you can learn each song from this absolute all time classic metal album in one convenient package. A must have for Sabbath fans. Released in 1970, Paranoid features many of Black Sabbath’s best known songs, and some of Tony Iommi’s most flashy blues rock influences.
Learn to play the following:

- War Pigs
- Paranoid
- Planet Caravan
- Iron Man
- Electric Funeral
- Hand of Doom
- Rat Salad
- Fairies Wear Boots

Presented in stunning multi camera angle footage, you’ll learn the highlights of each song one note at a time so you’ll never get lost. From the iconic riffs to the explosive solos, never has it been so easy to learn one of the greatest albums ever.

also You can find my other helpful Guitar-posts
(if old file-links don't show activity, try copy-paste them to the address bar)

General
Complete name : 05 - Paranoid - Rhythm Parts.mp4
Format : MPEG-4
Codec ID : M4V (isom/avc1/M4A /M4V /mp42)
File size : 65.7 MiB
Duration : 5 min 37 s
Overall bit rate mode : Variable
Overall bit rate : 1 633 kb/s
Encoded date : UTC 2016-05-06 17:14:48
Tagged date : UTC 2016-05-06 17:14:48

Video
ID : 1
Format : AVC
Format/Info : Advanced Video Codec
Format profile : High@L4
Format settings : CABAC / 4 Ref Frames
Format settings, CABAC : Yes
Format settings, RefFrames : 4 frames
Codec ID : avc1
Codec ID/Info : Advanced Video Coding
Duration : 5 min 37 s
Bit rate : 1 500 kb/s
Maximum bit rate : 2 982 kb/s
Width : 1 920 pixels
Height : 1 080 pixels
Display aspect ratio : 16:9
Frame rate mode : Constant
Frame rate : 25.000 FPS
Color space : YUV
Chroma subsampling : 4:2:0
Bit depth : 8 bits
Scan type : Progressive
Bits/(Pixel*Frame) : 0.029
Stream size : 60.4 MiB (92%)
Writing library : x264 core 148 r2692kMod 64f4e24
Encoding settings : cabac=1 / ref=4 / deblock=1:0:0 / analyse=0x3:0x113 / me=umh / subme=8 / psy=1 / fade_compensate=0.00 / psy_rd=1.00:0.00 / mixed_ref=1 / me_range=16 / chroma_me=1 / trellis=1 / 8x8dct=1 / cqm=0 / deadzone=21,11 / fast_pskip=1 / chroma_qp_offset=-2 / threads=12 / lookahead_threads=2 / sliced_threads=0 / nr=0 / decimate=1 / interlaced=0 / bluray_compat=0 / constrained_intra=0 / fgo=0 / bframes=3 / b_pyramid=2 / b_adapt=2 / b_bias=0 / direct=3 / weightb=1 / open_gop=0 / weightp=2 / keyint=250 / keyint_min=25 / scenecut=40 / intra_refresh=0 / rc_lookahead=50 / rc=2pass / mbtree=1 / bitrate=1500 / ratetol=1.0 / qcomp=0.60 / qpmin=0 / qpmax=69 / qpstep=4 / cplxblur=20.0 / qblur=0.5 / ip_ratio=1.40 / aq=1:1.00
Encoded date : UTC 2016-05-06 17:14:48
Tagged date : UTC 2016-05-06 17:14:49

Audio
ID : 2
Format : AAC
Format/Info : Advanced Audio Codec
Format profile : LC
Codec ID : mp4a-40-2
Duration : 5 min 37 s
Bit rate mode : Variable
Bit rate : 128 kb/s
Maximum bit rate : 144 kb/s
Channel(s) : 2 channels
Channel positions : Front: L R
Sampling rate : 48.0 kHz
Frame rate : 46.875 FPS (1024 SPF)
Compression mode : Lossy
Stream size : 5.14 MiB (8%)
Encoded date : UTC 2016-05-06 17:08:21
Tagged date : UTC 2016-05-06 17:14:49
Screenshots

Lick Library: Classic Albums Black Sabbath Paranoid

Lick Library: Classic Albums Black Sabbath Paranoid

Lick Library: Classic Albums Black Sabbath Paranoid

Lick Library: Classic Albums Black Sabbath Paranoid

✅ Exclusive eLearning Videos ParRus-blogadd to bookmarks

Feel free to contact me PM
when links are dead or want any repost

Lick Library: Classic Albums Black Sabbath Paranoid