Subcategories

Classic Albums Physical Graffiti

Posted By: ParRus
Classic Albums Physical Graffiti

Classic Albums Physical Graffiti
WEBRip | English | MP4 | 1920 x 1080 | AVC ~1500 kbps | 25 fps
AAC 128 Kbps 48.0 KHz | 2 channels | 03:26:41 | 2.35 GB
Genre: eLearning Video / Guitar lesson

Making its début at number one on album charts in both the US and the UK and certified 16× platinum in the United States alone, Led Zeppelin’s Physical Graffiti (Released on 24 February 1975) is one of the bands strongest albums marking the artistic peak of their career.
Learn to play the following:

• Custard Pie
• The Rover
• In My Time Of Dying
• Houses of the Holy
• Kashmir
• In the Light
• Bron-Yr-Aur
• Trampled Under Foot
• Down by the Seaside
• Ten Years Gone
• Night Flight
• The Wanton Song
• Black Country Woman
• Sick Again

In this course, LickLibrary veteran, Danny Gill walks you through the many highlights of each song from the rock giants one phrase at a time, including Jimmy Page’s legendary guitar riffs and lead lines from the tracks; “Trampled Under Foot” and “In My Time Of Dying”, to the iconic “Kashmir”.

also You can find my other great: Guitar Lessons-posts

General
Complete name : 01_Rhythm Parts.mp4
Format : MPEG-4
Codec ID : M4V (isom/avc1/M4A /M4V /mp42)
File size : 41.5 MiB
Duration : 3 min 33 s
Overall bit rate mode : Variable
Overall bit rate : 1 635 kb/s
Encoded date : UTC 2019-03-12 10:52:20
Tagged date : UTC 2019-03-12 10:52:20

Video
ID : 1
Format : AVC
Format/Info : Advanced Video Codec
Format profile : High@L4
Format settings : CABAC / 4 Ref Frames
Format settings, CABAC : Yes
Format settings, RefFrames : 4 frames
Codec ID : avc1
Codec ID/Info : Advanced Video Coding
Duration : 3 min 33 s
Bit rate : 1 500 kb/s
Maximum bit rate : 2 524 kb/s
Width : 1 920 pixels
Height : 1 080 pixels
Display aspect ratio : 16:9
Frame rate mode : Constant
Frame rate : 25.000 FPS
Color space : YUV
Chroma subsampling : 4:2:0
Bit depth : 8 bits
Scan type : Progressive
Bits/(Pixel*Frame) : 0.029
Stream size : 38.2 MiB (92%)
Writing library : x264 core 148 r2744kMod b97ae06
Encoding settings : cabac=1 / ref=4 / deblock=1:0:0 / analyse=0x3:0x113 / me=hex / subme=8 / psy=1 / fade_compensate=0.00 / psy_rd=1.00:0.00 / mixed_ref=1 / me_range=16 / chroma_me=1 / trellis=2 / 8x8dct=1 / cqm=0 / deadzone=21,11 / fast_pskip=1 / chroma_qp_offset=-2 / threads=12 / lookahead_threads=2 / sliced_threads=0 / nr=0 / decimate=1 / interlaced=0 / bluray_compat=0 / constrained_intra=0 / bframes=3 / b_pyramid=2 / b_adapt=1 / b_bias=0 / direct=3 / weightb=1 / open_gop=0 / weightp=2 / keyint=250 / keyint_min=25 / scenecut=40 / intra_refresh=0 / rc_lookahead=50 / rc=2pass / mbtree=1 / bitrate=1500 / ratetol=1.0 / qcomp=0.60 / qpmin=0 / qpmax=69 / qpstep=4 / cplxblur=20.0 / qblur=0.5 / ip_ratio=1.40 / aq=1:1.00
Encoded date : UTC 2019-03-12 10:52:20
Tagged date : UTC 2019-03-12 10:52:20

Audio
ID : 2
Format : AAC
Format/Info : Advanced Audio Codec
Format profile : LC
Codec ID : mp4a-40-2
Duration : 3 min 33 s
Bit rate mode : Variable
Bit rate : 128 kb/s
Maximum bit rate : 141 kb/s
Channel(s) : 2 channels
Channel positions : Front: L R
Sampling rate : 48.0 kHz
Frame rate : 46.875 FPS (1024 SPF)
Compression mode : Lossy
Stream size : 3.24 MiB (8%)
Encoded date : UTC 2019-03-12 10:50:09
Tagged date : UTC 2019-03-12 10:52:20
Screenshots

Classic Albums Physical Graffiti

Classic Albums Physical Graffiti

Classic Albums Physical Graffiti

Classic Albums Physical Graffiti

Exclusive eLearning Videos ParRus-blogadd to bookmarks

Classic Albums Physical Graffiti