Subcategories

Computer Networks Security from Scratch to Advanced (2017)

Posted By: ParRus
Computer Networks Security from Scratch to Advanced (2017)

Computer Networks Security from Scratch to Advanced (2017)
WEBRip | English | MP4 + Project Files | 1280 x 720 | AVC ~53 kbps | 30 fps
AAC | 192 Kbps | 48.0 KHz | 2 channels | ~8 hours | 892 MB
Genre: eLearning Video / Development, Programming

Computer Networks Security Technologies and Tools for Network Admins and Security Officers
What Will I Learn?

introduction to Computer Networks
ISO/OSI Model (7 Layers)
TCP/IP Protocol Suite
Wireless Networks
Computer Networks Security
Firewalls and Honeypots
Intrusion Detection and Prevention systems (IDS/IPS)
Wireless Networks Security
Physical Security & Incident Handling
Computer Networks Security Recommendations

Requirements

Basic computer knowledge
Basic Internet skills and adequate connection
Beginner networking background
Microsoft Windows machine
Microsoft Power Point for the presentation material
Beginner cyber security information
Laptop machine and standard browser

Description

By the end of this course you will be fully aware of the wired and wireless computer networks basics, devices, and protocols in a step-by-step pace. You will also reach the professional level in networks security in terms of concepts, technologies, and tools. The course requires no background or pre-requisite, yet you will be able to understand all the up-to-date terminologies in the networks security during the lectures.

This course is organized as follows:

Section One: introduction to Computer Networks

Lecture 1: What is a Computer Network?
Lecture 2: Computer Networks Topologies
Lecture 3: Computer Networks Categories
Lecture 4: Computer Networks Devices and Services
Lecture 5: Computer Networks Transmission Media

Section Two: ISO/OSI Model (7 Layers)

Lecture 1: Why ISO/OSI Model?
Lecture 2: Application, Presentation, and Session Layers
Lecture 3: Transport and Network Layers
Lecture 4: Data Link and Physical Layers
Lecture 5: ISO/OSI Model in Action

Section Three: TCP/IP Protocol Suite

Lecture 1: Introduction to Computer Networks Protocols
Lecture 2: IP Protocol
Lecture 3: TCP and UDP Protocols
Lecture 4: Application Protocols
Lecture 5: TCP/IP Characteristics and Tools

Section Four: Wireless Networks

Lecture 1: Wireless Networks Benefits
Lecture 2: Wireless Networks Types
Lecture 3: Wireless Networks Protocol (Wi-Fi)
Lecture 4: Wireless Networks Devices
Lecture 5: Wireless Networks Drawbacks

Section Five: Computer Networks Security

Lecture 1: Security Goals
Lecture 2: Securing the Network Design
Lecture 3: TCP/IP Security and Tools
Lecture 4: Port Scanning and Tools
Lecture 5: Sniffing and Tools

Section Six: Firewalls and Honeypots

Lecture 1: Why Using a Firewall?
Lecture 2: Firewalls Rules
Lecture 3: Firewalls Filtering
Lecture 4: Honey Pots
Lecture 5: Bypassing Firewalls

Section Seven: Intrusion Detection and Prevention systems (IDS/IPS)

Lecture 1: What is Intrusion Detection Systems (IDS)?
Lecture 2: Network IDS (NIDS)
Lecture 3: NIDS Challenges
Lecture 4: Snort as NIDS
Lecture 5: Intrusion Prevention Systems (IPS)

Section Eight: Wireless Networks Security

Lecture 1: Wired Equivalent Privacy WEP Attacking
Lecture 2: WPA and AES Protocols
Lecture 3: Wireless Security Misconceptions
Lecture 4: Wireless Attacks and Mitigation
Lecture 5: Secure Network Design with Wireless

Section Nine: Physical Security & Incident Handling

Lecture 1: Physical Security Objectives
Lecture 2: Physical Threats and Mitigation
Lecture 3: Defense in Depth (DiD)
Lecture 4: What is an Incident?
Lecture 5: Incident Handling

Section Ten: Computer Networks Security Conclusion

Lecture 1: Confidentiality, Integrity, and Availability (CIA)
Lecture 2: Assets, Threats, and Vulnerabilities
Lecture 3: Risks and Network Intrusion
Lecture 4: Common Attacks
Lecture 5: Security Recommendations

Who is the target audience?

Network administrators
Cyber security officers
Computer science undergraduates
Computer engineering undergraduates
Network security postgraduates
Network technical support specialists
Security incident handlers
IT Engineers and CEOs
Software Developers
Web Developers
Mobile Applications Developers

also You can find my other last: Programming-posts

General
Complete name : 017 Wireless Networks Benefits.mp4
Format : MPEG-4
Format profile : Base Media / Version 2
Codec ID : mp42 (isom/iso2/avc1/mp41/mp42)
File size : 16.4 MiB
Duration : 9 min 19 s
Overall bit rate mode : Variable
Overall bit rate : 246 kb/s
Encoded date : UTC 2017-05-15 22:11:24
Tagged date : UTC 2017-05-15 22:11:24
Writing application : Lavf53.32.100

Video
ID : 1
Format : AVC
Format/Info : Advanced Video Codec
Format profile : High@L3
Format settings, CABAC : Yes
Format settings, ReFrames : 4 frames
Codec ID : avc1
Codec ID/Info : Advanced Video Coding
Duration : 9 min 19 s
Bit rate : 53.0 kb/s
Width : 1 280 pixels
Height : 720 pixels
Display aspect ratio : 16:9
Frame rate mode : Constant
Frame rate : 30.000 FPS
Color space : YUV
Chroma subsampling : 4:2:0
Bit depth : 8 bits
Scan type : Progressive
Bits/(Pixel*Frame) : 0.002
Stream size : 3.55 MiB (22%)
Writing library : x264 core 136
Encoding settings : cabac=1 / ref=4 / deblock=1:0:0 / analyse=0x3:0x113 / me=umh / subme=7 / psy=0 / mixed_ref=1 / me_range=16 / chroma_me=1 / trellis=1 / 8x8dct=1 / cqm=0 / deadzone=21,11 / fast_pskip=0 / chroma_qp_offset=0 / threads=48 / lookahead_threads=5 / sliced_threads=0 / nr=0 / decimate=1 / interlaced=0 / bluray_compat=0 / constrained_intra=0 / bframes=16 / b_pyramid=2 / b_adapt=1 / b_bias=0 / direct=1 / weightb=1 / open_gop=0 / weightp=2 / keyint=300 / keyint_min=25 / scenecut=40 / intra_refresh=0 / rc=2pass / mbtree=0 / bitrate=53 / ratetol=1.0 / qcomp=0.60 / qpmin=10 / qpmax=51 / qpstep=4 / cplxblur=20.0 / qblur=0.5 / ip_ratio=1.40 / pb_ratio=1.30 / aq=1:1.00
Language : English
Encoded date : UTC 2017-05-15 22:11:24
Tagged date : UTC 2017-05-27 02:00:46

Audio
ID : 2
Format : AAC
Format/Info : Advanced Audio Codec
Format profile : LC
Codec ID : 40
Duration : 9 min 19 s
Bit rate mode : Variable
Bit rate : 192 kb/s
Channel(s) : 2 channels
Channel positions : Front: L R
Sampling rate : 48.0 kHz
Frame rate : 46.875 FPS (1024 spf)
Compression mode : Lossy
Stream size : 12.6 MiB (77%)
Default : Yes
Alternate group : 1
Encoded date : UTC 2017-05-15 22:11:24
Tagged date : UTC 2017-05-27 02:00:46
Screenshots

Computer Networks Security from Scratch to Advanced (2017)

Computer Networks Security from Scratch to Advanced (2017)

Computer Networks Security from Scratch to Advanced (2017)

Computer Networks Security from Scratch to Advanced (2017)

Computer Networks Security from Scratch to Advanced (2017)

Computer Networks Security from Scratch to Advanced (2017)

Exclusive eLearning Videos ParRus-blogadd to bookmarks

Feel free to contact me PM
when links are dead or want any repost

Computer Networks Security from Scratch to Advanced (2017)