Subcategories

Anik Singal - Copywriting Academy (2017)

Posted By: ParRus
Anik Singal - Copywriting Academy (2017)

Anik Singal - Copywriting Academy (2017)
WEBRip | English | MP4 + MP3 + PDF Guides | 1152 x 720 | AVC ~672 Kbps | 23.976 fps
AAC | 235 Kbps | 48.0 KHz | 2 channels | 21:06:00 | 16.49 GB
Genre: Video Tutorial / Business, Copywriting

How To Master Copywriting ? Step #1: Join Copywriting Academy This copywriting certification program walks you through step-by-step how to write copy that sells – both for your own projects AND for your clients. You not only get MY help, but the guidance of my top coaches AND copywriting experts from around the world. This is the best copywriting course on the planet that teaches you how to sell in this new age of Interactive Marketing.
Copywriting is the #1 skill that’s NEEDED in the industry right now. There’s a serious lack of great copywriters. So even if you don’t have a product to sell right now, being a certified Copywriting Academy student AUTOMATICALLY makes you stand out and IN-DEMAND.

The concepts I share with you in the course are actionable, practical, and example-based that’s better than any college of university curriculum – for the fraction of the price.

Here’s What You Get Today When You Join Copywriting Academy
Become a Founding Member of Copywriting Academy and master the art of selling by simply using… words!

#1. Training & Full System – Tested, Proven, Step-By-Step

#2. Community of Interactive Marketing Specialists

#3. Industry-Recognized Certification

There Are 3 Elements That You Need In Order To Master Copywriting

#1. Proven System

I will take you through 8 modules that include concepts developed over 15 years along with LIVE examples and case-studies.

I’ll build your foundation and show you how to research and create:

Action pages (Optin Pages, Webinar Registration Pages)
High-Converting Emails
Video Sales Letters
Written Sales Letters
Webinars
I’ll also go one step further, and bring on the greatest minds in copywriting and grill them. Learn from the legends.

#2. Community

I’m not just talking about 24/7 support. I’m talking MENTORSHIP!

You will have access to the top Lurn coaches. A community of like-minded people who are learning and growing with you. And top copywriting experts from all over the world.

#3. Certification

Get industry-recognized certification as a founding member of Interactive Marketing. This gives you INSTANT CREDIBILITY.

This is your chance to discover your true strengths, become a worldwide pioneer, and also to help others sell their product

The question is up to you to answer:

Where do you want your new copywriting skill to take you?

Do you want to use it to significantly increase your audience’s interest, conversions and sales?
Do you want to make a little extra money on the side? Remember, you can make good money for even just one copywriting project.
Do you want to quit your day job and replace (or even increase) your income?
Once you become a Certified Copywriter through Lurn’s exclusive certification program, the choice is yours!

I would love to hear what you think about my Ultimate Copywriting Workshop! Your feedback is really important to me, so please leave a COMMENT below. Please also remember to LIKE and SHARE this post on social media!

also You can find my other last: Copywriting-posts

General
Complete name : 03. What's Your Purpose.MP4
Format : MPEG-4
Format profile : Base Media
Codec ID : isom (isom/iso2/avc1/mp41)
File size : 115 MiB
Duration : 17 min 35 s
Overall bit rate : 912 kb/s
Season : 0
Movie name : 03. What's Your Purpose
Part : 0

AppleStoreCatalogID : 0

Video
ID : 1
Format : AVC
Format/Info : Advanced Video Codec
Format profile : High@L3.1
Format settings, CABAC : Yes
Format settings, ReFrames : 4 frames
Codec ID : avc1
Codec ID/Info : Advanced Video Coding
Duration : 17 min 35 s
Bit rate : 672 kb/s
Nominal bit rate : 710 kb/s
Width : 1 152 pixels
Height : 720 pixels
Display aspect ratio : 16:10
Frame rate mode : Constant
Frame rate : 23.976 (23976/1000) FPS
Color space : YUV
Chroma subsampling : 4:2:0
Bit depth : 8 bits
Scan type : Progressive
Bits/(Pixel*Frame) : 0.034
Stream size : 84.5 MiB (74%)
Writing library : x264 core 129
Encoding settings : cabac=1 / ref=3 / deblock=1:0:0 / analyse=0x3:0x113 / me=hex / subme=7 / psy=1 / psy_rd=1.00:0.00 / mixed_ref=1 / me_range=16 / chroma_me=1 / trellis=1 / 8x8dct=1 / cqm=0 / deadzone=21,11 / fast_pskip=1 / chroma_qp_offset=-2 / threads=9 / lookahead_threads=1 / sliced_threads=0 / nr=0 / decimate=1 / interlaced=0 / bluray_compat=0 / constrained_intra=0 / bframes=3 / b_pyramid=2 / b_adapt=1 / b_bias=0 / direct=1 / weightb=1 / open_gop=0 / weightp=2 / keyint=250 / keyint_min=23 / scenecut=40 / intra_refresh=0 / rc_lookahead=40 / rc=abr / mbtree=1 / bitrate=710 / ratetol=1.0 / qcomp=0.60 / qpmin=0 / qpmax=69 / qpstep=4 / ip_ratio=1.40 / aq=1:1.00
Menus : 3

Audio
ID : 2
Format : AAC
Format/Info : Advanced Audio Codec
Format profile : LC
Codec ID : 40
Duration : 17 min 35 s
Bit rate mode : Constant
Bit rate : 235 kb/s
Channel(s) : 2 channels
Channel positions : Front: L R
Sampling rate : 48.0 kHz
Frame rate : 46.875 FPS (1024 spf)
Compression mode : Lossy
Stream size : 29.6 MiB (26%)
Default : Yes
Alternate group : 1

Menu
ID : 3
Codec ID : text
Duration : 17 min 35 s
Encoded date : UTC 2017-07-25 09:42:05
Tagged date : UTC 2017-07-25 09:42:05
Menu For : 1
00:00:00.000 : Chapter 1

Screenshots

Anik Singal - Copywriting Academy (2017)

Anik Singal - Copywriting Academy (2017)

Anik Singal - Copywriting Academy (2017)

Anik Singal - Copywriting Academy (2017)

Anik Singal - Copywriting Academy (2017)

Exclusive eLearning Videos ParRus-blogadd to bookmarks

Feel free to contact me PM
when links are dead or want any repost

Anik Singal - Copywriting Academy (2017)