Subcategories

Coursera - Compilers [repost]

Posted By: ParRus
Coursera - Compilers [repost]

Coursera - Compilers
Alex Aiken, Professor of Computer Science - Stanford University
WEBRip | English | MP4 + PDF Slides | 960 x 540 | AVC ~22.1 kbps | 15 fps
AAC | 113 Kbps | 44.1 KHz | 2 channels | Subs: English (.srt) | 19:22:47 | 1.21 GB
Genre: eLearning Video / Development, Programming

Welcome to a public version of Stanford's undergraduate course on compilers. The first week of lectures are available, and that is all that is assigned for the first week.
The course will last ten weeks. Starting with the second week, we'll begin having short in-lecture quizzes to help you master the material, as well as a weekly multiple-choice quiz. There will also be weekly homeworks using DeduceIt, a new (and novel) system for delivering free-form exercises in the form of derivations or proofs.
We hope these assignments will help you learn the material at a level in a way that was previously impossible without one-on-one instruction. Halfway through the course there will be a midterm and at the end we'll have a final, both of which will be structured as longer, timed on-line quizzes.
No compiler course would be complete without the opportunity to have the experience of implementing a full compiler for at least a simplified programming language. We realize that many students will have claims on their time besides writing a substantial software system for an on-line class, but we will have a series of optional assignments that, if completed, will lead you to build a full compiler for COOL, the Classroom Object Oriented Language. We'll have more details on the compiler project once the course begins.
At the end of the class we'll issue certificates of accomplishment for those who finished the coursework, with an extra acknowledgment for those who have done the compiler project.
We hope you enjoy the course!

Courses list:
Introduction
The Cool Programming Language
Lexical Analysis
Finite Automata
Parsing
Top-Down Parsing
Bottom-Up Parsing I
Bottom-Up Parsing II
Semantic Analysis and Type Checking
Cool Type Checking
Runtime Organization
Code Generation
Operational Semantics
Local Optimization
Global Optimization
Register Allocation
Garbage Collection
Java

also You can watch my other last: Programming-posts

General
Complete name : 13 - 4 - 13-04_ Cool Semantics II (26m13s).mp4
Format : MPEG-4
Format profile : Base Media
Codec ID : isom (isom/iso2/avc1/mp41)
File size : 26.1 MiB
Duration : 26mn 13s
Overall bit rate mode : Variable
Overall bit rate : 139 Kbps
Encoded date : UTC 1970-01-01 00:00:00
Tagged date : UTC 1970-01-01 00:00:00
Writing application : Lavf53.29.100

Video
ID : 1
Format : AVC
Format/Info : Advanced Video Codec
Format profile : High@L3.1
Format settings, CABAC : Yes
Format settings, ReFrames : 4 frames
Codec ID : avc1
Codec ID/Info : Advanced Video Coding
Duration : 26mn 12s
Bit rate : 22.1 Kbps
Width : 960 pixels
Height : 540 pixels
Display aspect ratio : 16:9
Frame rate mode : Constant
Frame rate : 15.000 fps
Color space : YUV
Chroma subsampling : 4:2:0
Bit depth : 8 bits
Scan type : Progressive
Bits/(Pixel*Frame) : 0.003
Stream size : 4.14 MiB (16%)
Writing library : x264 core 120 r2120 0c7dab9
Encoding settings : cabac=1 / ref=3 / deblock=1:0:0 / analyse=0x3:0x113 / me=hex / subme=7 / psy=1 / psy_rd=1.00:0.00 / mixed_ref=1 / me_range=16 / chroma_me=1 / trellis=1 / 8x8dct=1 / cqm=0 / deadzone=21,11 / fast_pskip=1 / chroma_qp_offset=-2 / threads=12 / sliced_threads=0 / nr=0 / decimate=1 / interlaced=0 / bluray_compat=0 / constrained_intra=0 / bframes=3 / b_pyramid=2 / b_adapt=1 / b_bias=0 / direct=1 / weightb=1 / open_gop=0 / weightp=2 / keyint=250 / keyint_min=15 / scenecut=40 / intra_refresh=0 / rc_lookahead=40 / rc=crf / mbtree=1 / crf=28.0 / qcomp=0.60 / qpmin=0 / qpmax=69 / qpstep=4 / ip_ratio=1.40 / aq=1:1.00
Encoded date : UTC 1970-01-01 00:00:00
Tagged date : UTC 1970-01-01 00:00:00

Audio
ID : 2
Format : AAC
Format/Info : Advanced Audio Codec
Format profile : LC
Codec ID : 40
Duration : 26mn 13s
Bit rate mode : Variable
Bit rate : 113 Kbps
Maximum bit rate : 128 Kbps
Channel(s) : 2 channels
Channel positions : Front: L R
Sampling rate : 44.1 KHz
Frame rate : 43.066 fps (1024 spf)
Compression mode : Lossy
Stream size : 21.2 MiB (81%)
Default : Yes
Alternate group : 1
Encoded date : UTC 1970-01-01 00:00:00
Tagged date : UTC 1970-01-01 00:00:00

Screenshots

Coursera - Compilers [repost]

Coursera - Compilers [repost]

Coursera - Compilers [repost]

Coursera - Compilers [repost]

For more Exclusive material, Visit my AH-blog

Coursera - Compilers [repost]