Subcategories

Deep House Track From Start To Finish (2016)

Posted By: ParRus
Deep House Track From Start To Finish (2016)

Deep House Track From Start To Finish
WEBRip | English | FLV | 960 x 600 | AVC ~363 kbps | 30 fps
AAC | 126 Kbps | 44.1 KHz | 2 channels | 09:57:29 | 2.04 GB
Genre: Video Tutorial / Sound Processing, Music Production, Sound Engineering

After having taken this class, you'll have seen a complete production process first hand, starting from nothing and working through all the different important stages of the production process, from start to finish. The final track is inspired by artists like Flume, San Holo, Cashmere Cat, Odesza.
Content:

1. Setup & Downloading The Files
2. Simpler 9 vs. Simpler 9.5
3. Playing the Final Product
4. Creating a Pad & Writing Chords
5. Adding Kick and Sidechain
6. Adding a Bass
7. Adding Basic Drums
8. Adding More Drum Sounds
9. Basic FX Setup
10. Adding an Arp
11. Background Pad Instrument and Macro Controls
12. Basic Pipe Melody Production Music Live - Courses
13. Creating A Custom Instrument
14. Creating Custom Audio Effects
15. Adding Arps and Pipe Sounds
16. Adding Arps and Pipe Sounds
17. Adding Vocal Chops & Hits
18. Adding Choir Vocals and Pads
19. Adding Optional Bass Layers
20. Adding a Dirty Bass
21. Adding a Lead Pad
22. Creating A Melody Bass
23. Adding Noise
24. Arrangement Part 1
25. Arrangement Part 2
26. Transitions & Fine Tuning
27. Mixing
28. Mastering

also You can look my other last: Sound Processing-posts

General
Complete name : 3. Playing the Final Product.flv
Format : Flash Video
File size : 28.9 MiB
Duration : 7mn 56s
Overall bit rate : 509 Kbps
Writing application : Wistia
Tagging application : Yet Another Metadata Injector for FLV - Version 2.0

Video
Format : AVC
Format/Info : Advanced Video Codec
Format profile : High@L3.1
Format settings, CABAC : Yes
Format settings, ReFrames : 4 frames
Codec ID : 7
Duration : 7mn 56s
Bit rate : 363 Kbps
Width : 960 pixels
Height : 600 pixels
Display aspect ratio : 16:10
Frame rate mode : Constant
Frame rate : 30.000 fps
Color space : YUV
Chroma subsampling : 4:2:0
Bit depth : 8 bits
Scan type : Progressive
Bits/(Pixel*Frame) : 0.021
Stream size : 21.2 MiB (74%)
Writing library : x264 core 148 r2705 3f5ed56
Encoding settings : cabac=1 / ref=4 / deblock=1:0:0 / analyse=0x3:0x113 / me=umh / subme=8 / psy=1 / psy_rd=1.00:0.00 / mixed_ref=1 / me_range=16 / chroma_me=1 / trellis=1 / 8x8dct=1 / cqm=0 / deadzone=21,11 / fast_pskip=1 / chroma_qp_offset=-2 / threads=12 / lookahead_threads=2 / sliced_threads=0 / nr=0 / decimate=1 / interlaced=0 / bluray_compat=0 / constrained_intra=0 / bframes=3 / b_pyramid=2 / b_adapt=2 / b_bias=0 / direct=3 / weightb=1 / open_gop=0 / weightp=2 / keyint=90 / keyint_min=46 / scenecut=0 / intra_refresh=0 / rc_lookahead=40 / rc=crf / mbtree=1 / crf=23.0 / qcomp=0.60 / qpmin=10 / qpmax=51 / qpstep=4 / vbv_maxrate=1800 / vbv_bufsize=1800 / crf_max=0.0 / nal_hrd=none / filler=0 / ip_ratio=1.41 / aq=1:1.00

Audio
Format : AAC
Format/Info : Advanced Audio Codec
Format profile : LC
Codec ID : 10
Duration : 7mn 56s
Bit rate : 126 Kbps
Channel(s) : 2 channels
Channel positions : Front: L R
Sampling rate : 44.1 KHz
Compression mode : Lossy
Delay relative to video : 21ms
Stream size : 7.52 MiB (26%)

Screenshots

Deep House Track From Start To Finish (2016)

Deep House Track From Start To Finish (2016)

Deep House Track From Start To Finish (2016)

Deep House Track From Start To Finish (2016)

Exclusive eLearning Videos ParRus-blogadd to bookmarks

Deep House Track From Start To Finish (2016)