Subcategories

Easy Bass Guitar Scales DVD [repost]

Posted By: ParRus
Easy Bass Guitar Scales DVD [repost]

Easy Bass Guitar Scales DVD: Over 50 Common and Exotic Scales and Modes For Bass
DVD5 | English | VIDEO_TS | 720 x 480 | MPEG2 ~3781 kbps | 29.970 fps
AC-3 192 Kbps 48.0 KHz | 2 channels | 00:44:53 | 1.29 GB
Genre: eLearning Video / Guitar lesson

Scales are the foundation of music! They can be found in every known culture. In all styles of modern music, scales are the heartbeat, breath and soul of the solos, riffs and bass lines! This course has every bass guitar scale you ve ever wanted to learn! Presented in a simple root to octave format, starting with basic scales such as major, minor, pentatonic and blues. Next learn the patterns spanning all musical styles and cultures with exotic scales like the Balinese, Hirojoshi and Kumoi. There are over 50 scales for you to use to spice up your bass playing!
Each scale is presented with a video demonstration at a slow and fast tempo. The bottom half of the screen gives you the option of using sheet music in the form of note charts, traditional notation or tablature (TAB).

Easy Bass Guitar Scales DVD [repost]


As a bonus, you will learn tips for changing musical keys. Octaves are introduced to help you to navigate your fretboard. This is further enhanced by showing you how to extend each scale higher and lower in pitch. Throughout this video course you will find examples for using scales and modes musically.

also You can look my other last: Guitar Lessons-posts

General
Complete name :VTS_01_1.VOB
Format : MPEG-PS
File size : 1 024 MiB
Duration : 35mn 18s
Overall bit rate mode : Variable
Overall bit rate : 4 054 Kbps

Video
ID : 224 (0xE0)
Format : MPEG Video
Format version : Version 2
Format profile : Main@Main
Format settings, BVOP : Yes
Format settings, Matrix : Custom
Format settings, GOP : Variable
Duration : 35mn 18s
Bit rate mode : Variable
Bit rate : 3 781 Kbps
Maximum bit rate : 7 500 Kbps
Width : 720 pixels
Height : 480 pixels
Display aspect ratio : 4:3
Frame rate : 29.970 fps
Standard : NTSC
Color space : YUV
Chroma subsampling : 4:2:0
Bit depth : 8 bits
Scan type : Interlaced
Scan order : Bottom Field First
Compression mode : Lossy
Bits/(Pixel*Frame) : 0.365
Time code of first frame : 01:00:00;00
Time code source : Group of pictures header
Stream size : 955 MiB (93%)
Color primaries : BT.601 NTSC
Transfer characteristics : BT.601
Matrix coefficients : BT.601

Audio
ID : 189 (0xBD)-128 (0x80)
Format : AC-3
Format/Info : Audio Coding 3
Mode extension : CM (complete main)
Format settings, Endianness : Big
Muxing mode : DVD-Video
Duration : 35mn 18s
Bit rate mode : Constant
Bit rate : 192 Kbps
Channel(s) : 2 channels
Channel positions : Front: L R
Sampling rate : 48.0 KHz
Bit depth : 16 bits
Compression mode : Lossy
Stream size : 48.5 MiB (5%)

Menu
Screenshots

Easy Bass Guitar Scales DVD [repost]

Easy Bass Guitar Scales DVD [repost]

Easy Bass Guitar Scales DVD [repost]

Easy Bass Guitar Scales DVD [repost]

Easy Bass Guitar Scales DVD [repost]

Easy Bass Guitar Scales DVD [repost]

Exclusive eLearning Videos ParRus-blogadd to bookmarks

Easy Bass Guitar Scales DVD [repost]