Subcategories

Egghead - RxJS lessons (2015)

Posted By: ParRus
Egghead - RxJS lessons (2015)

Egghead - RxJS lessons
WEBRip | English | MP4 | 1280 x 720 | AVC ~128 kbps | 25 fps
AAC | 82.7 Kbps | 48.0 KHz | 1 channel | 03:22:31 | 579.8 MB
Genre: Video Tutorial / Development, Programming

The Reactive Extensions for JavaScript (RxJS) is a set of libraries for composing asynchronous and event-based programs using observable sequences and fluent query operators that many of you already know by Array#extras in JavaScript. Using RxJS, developers represent asynchronous data streams with Observables, query asynchronous data streams using our many operators, and parameterize the concurrency in the asynchronous data streams using Schedulers. Simply put, RxJS = Observables + Operators + Schedulers.
also You can watch my other last: Programming-posts

General
Complete name : 02 - RxJS - What is RxJS.mp4
Format : MPEG-4
Format profile : Base Media
Codec ID : isom (isom/iso2/avc1/mp41)
File size : 3.92 MiB
Duration : 2mn 31s
Overall bit rate mode : Variable
Overall bit rate : 217 Kbps
Encoded date : UTC 1970-01-01 00:00:00
Tagged date : UTC 1970-01-01 00:00:00
Writing application : Lavf52.99.1

Video
ID : 1
Format : AVC
Format/Info : Advanced Video Codec
Format profile : High@L3
Format settings, CABAC : Yes
Format settings, ReFrames : 4 frames
Codec ID : avc1
Codec ID/Info : Advanced Video Coding
Duration : 2mn 31s
Bit rate : 128 Kbps
Nominal bit rate : 1 200 Kbps
Width : 1 280 pixels
Height : 720 pixels
Display aspect ratio : 16:9
Frame rate mode : Constant
Frame rate : 25.000 fps
Color space : YUV
Chroma subsampling : 4:2:0
Bit depth : 8 bits
Scan type : Progressive
Bits/(Pixel*Frame) : 0.006
Stream size : 2.31 MiB (59%)
Writing library : x264 core 114 r1913 5fd3dce
Encoding settings : cabac=1 / ref=2 / deblock=1:0:0 / analyse=0x3:0x113 / me=hex / subme=4 / psy=1 / psy_rd=0.00:0.00 / mixed_ref=0 / me_range=16 / chroma_me=1 / trellis=1 / 8x8dct=1 / cqm=0 / deadzone=21,11 / fast_pskip=1 / chroma_qp_offset=0 / threads=3 / sliced_threads=0 / nr=0 / decimate=1 / interlaced=0 / constrained_intra=0 / bframes=3 / b_pyramid=2 / b_adapt=1 / b_bias=0 / direct=1 / weightb=1 / open_gop=0 / weightp=1 / keyint=250 / keyint_min=25 / scenecut=40 / intra_refresh=0 / rc_lookahead=20 / rc=cbr / mbtree=1 / bitrate=1200 / ratetol=1.0 / qcomp=0.60 / qpmin=0 / qpmax=69 / qpstep=4 / vbv_maxrate=1200 / vbv_bufsize=1200 / nal_hrd=none / ip_ratio=1.41 / aq=1:1.00
Encoded date : UTC 1970-01-01 00:00:00
Tagged date : UTC 1970-01-01 00:00:00

Audio
ID : 2
Format : AAC
Format/Info : Advanced Audio Codec
Format profile : LC
Codec ID : 40
Duration : 2mn 31s
Bit rate mode : Variable
Bit rate : 82.7 Kbps
Channel(s) : 2 channels
Channel(s)_Original : 1 channel
Channel positions : Front: C
Sampling rate : 48.0 KHz
Frame rate : 46.875 fps (1024 spf)
Compression mode : Lossy
Stream size : 1.50 MiB (38%)
Encoded date : UTC 1970-01-01 00:00:00
Tagged date : UTC 1970-01-01 00:00:00

Screenshots

Egghead - RxJS lessons (2015)

Egghead - RxJS lessons (2015)

Egghead - RxJS lessons (2015)

Exclusive eLearning, and eDucational Videos Check My ParRus-blogadd to bookmarks

Egghead - RxJS lessons (2015)