Subcategories

Love Systems - The Essentials: Super Conference VIII (Full Course)

Posted By: ParRus
Love Systems - The Essentials: Super Conference VIII (Full Course)

Love Systems - The Essentials: Super Conference VIII
20xDVDRip + Audio CD | English | MP4 + MP3 | 1280 x 720 | AVC ~3524 kbps | 29.970 fps
AAC | 128 Kbps | 48.0 KHz | 2 channels | 19:25:19 | 25.7 GB
Genre: eLearning Video / Relationship, Dating, Pickup

The ultimate home study course that will teach you how to approach, meet, attract, seduce, and date the most desirable women in the world! Eight of the world’s top dating coaches (including Nick Savoy) have come together to create The Essentials: Super Conference VIII.
There’s a cutie in your life that you can’t stop thinking about, but she doesn’t see you as a lover, and you want to know how to get a girl to like you.
Your heart skips a beat when you see a hot girl, but you never know what to do and want to know how to date that hot girl.
You love it when your friends are jealous of you when they see you with a hot girl (but it hasn’t happened in a while)
You’re pretty good with women, but want to get better and don’t want to waste your time with anything but the best advice
You’ve always wanted to sleep with a model, blonde girl, stripper, or [girl of race X] and want to know how
You see Hank Moody on Californication, Vince Chase on Entourage, or George Clooney in pretty much anything and think, "How can I also get girls to throw themselves at me?"
You love the young, hot sorority-girl type, but don’t have any of them in your life
Your kind of a big deal at work, but it doesn’t translate into girls liking you
You just got divorced and want to date, but are confused by modern dating
You want to have a “non-traditional” and adventurous love life – and want to make a real plan to make it happen and want to know how to date more than one girl
If one or more of the above describes you, the this course is exactly what you're looking for.

This course features the actual strategies, techniques, mindsets, exercises, routines, and approaches used by the most successful seduction masters in the world to approach and get a girl to like you that you can use for results that most guys can only dream about.

All of a sudden, instead of worrying about what to say, or how to approach cute girls, you’ll be worried about making sure she doesn’t get too attached or how you can date more than one girl at a time.


Included Sections Video Length (h:m:s)
Volume 1: Super Conference Documentary & In-field Video 0:49:55
Volume 2: Biggest Breakthroughs & The Love Systems Triad Model (Savoy & Braddock) 1:06:10
Volume 3: Inner Game (Braddock) 1:05:09
Volume 4: Attraction (Future) 0:58:51
Volume 5: Quick Fixes (Keychain) 0:53:31
Volume 6: Identity (Cajun) 1:03:23
Volume 7: Fashion (Braddock) 0:57:38
Volume 8: Lifestyle (Jeremy Soul) 1:06:37
Volume 9: Frame Control (Fader) 1:06:50
Volume 10: Phone & Text Game (Chris "Tenmagnet" Shepherd) 1:04:32
Volume 11: Dates (Keychain) 0:56:59
Volume 12: Closing Ceremony & In-field Video 0:22:39

Interview Series Vol. 85: Gaming With and Without Alcohol

Regular Price $497
More Info: Salepage


General
Complete name : DVD 6-Identity-Cajun.mp4
Format : MPEG-4
Format profile : Base Media
Codec ID : isom
File size : 1.62 GiB
Duration : 1h 3mn
Overall bit rate mode : Variable
Overall bit rate : 3 653 Kbps
Encoded date : UTC 2013-06-26 09:58:46
Tagged date : UTC 2013-06-26 09:58:46

Video
ID : 1
Format : AVC
Format/Info : Advanced Video Codec
Format profile : Baseline@L3.1
Format settings, CABAC : No
Format settings, ReFrames : 1 frame
Format settings, GOP : M=1, N=12
Codec ID : avc1
Codec ID/Info : Advanced Video Coding
Duration : 1h 3mn
Bit rate : 3 524 Kbps
Maximum bit rate : 13.0 Mbps
Width : 1 280 pixels
Height : 720 pixels
Display aspect ratio : 16:9
Frame rate mode : Constant
Frame rate : 29.970 fps
Color space : YUV
Chroma subsampling : 4:2:0
Bit depth : 8 bits
Scan type : Progressive
Bits/(Pixel*Frame) : 0.128
Stream size : 1.56 GiB (96%)
Encoded date : UTC 2013-06-25 18:18:31
Tagged date : UTC 2013-06-26 10:01:37

Audio
ID : 2
Format : AAC
Format/Info : Advanced Audio Codec
Format profile : LC
Codec ID : 40
Duration : 1h 3mn
Bit rate mode : Variable
Bit rate : 128 Kbps
Maximum bit rate : 157 Kbps
Channel(s) : 2 channels
Channel positions : Front: L R
Sampling rate : 48.0 KHz
Compression mode : Lossy
Stream size : 57.4 MiB (3%)
Encoded date : UTC 2013-06-26 09:59:11
Tagged date : UTC 2013-06-26 10:01:37

Screenshots

Love Systems - The Essentials: Super Conference VIII (Full Course)

Love Systems - The Essentials: Super Conference VIII (Full Course)

Love Systems - The Essentials: Super Conference VIII (Full Course)

Love Systems - The Essentials: Super Conference VIII (Full Course)

Love Systems - The Essentials: Super Conference VIII (Full Course)

Love Systems - The Essentials: Super Conference VIII (Full Course)

Love Systems - The Essentials: Super Conference VIII (Full Course)

Love Systems - The Essentials: Super Conference VIII (Full Course)

Exclusive eLearning Videos ParRus-blogadd to bookmarks

Love Systems - The Essentials: Super Conference VIII (Full Course)