Subcategories

Mark Guiliana - Exploring Your Creativity on the Drumset (2016)

Posted By: ParRus
Mark Guiliana - Exploring Your Creativity on the Drumset (2016)

Mark Guiliana - Exploring Your Creativity on the Drumset (2016)
DVDRip | English | MOV + PDF Guide | 1280 x 720 | AVC~1587 kbps | 30 fps
AAC 160 Kbps 44.1 KHz | 2 channels | 03:21:54 | 2.51 GB
Genre: eLearning Video / Drum-set, Percussion

Mark presents a complete system entitled D.R.O.P.: Dynamics, Rate, Orchestration and Phrasing.
“How do you come up with such creative parts?”
“How do you seem to bend and modulate the time in your grooves and fills?”
“How did you get so comfortable switching and changing rhythmic rates in your playing?”
“What did you practice to become such a great improviser?”
“How do I find my own voice and style?”
In this package, Mark Guiliana presents a complete system to answer these questions. The book follows a system entitled D.R.O.P.: Dynamics, Rate, Orchestration and Phrasing. Mark pulls apart and addresses each of these building blocks individually, presenting rhythmic concepts that will expand your ability to call on different rhythmic rates and subdivisions on command, move them around the kit freely, and ultimately be able to phrase them in exciting and sometimes complex ways that sound like “polyrhythms” and “metric modulations” but are actually constructed upon a solid foundation of drumming basics. This material will give you the confidence to make a personal statement on the drumset.

Adding to this package is live footage of Mark playing with two of his longtime collaborators, Tim Lefebvre (bass) and Jason Lindner (keys). Having played together for years, these three musicians most recently formed the rhythm section for David Bowie’s final album, Blackstar. Watch Mark interact with these world-class musicians in electric and acoustic settings as they apply Mark’s concepts in inspiring performances.

“As Mark’s first drum teacher, I have wanted him to write a book for years,” said Hudson Music Senior Drum Editor Joe Bergamini. “To say it was worth wait would be a huge understatement. The D.R.O.P. system that Mark has developed is brilliant. The way he puts together the different steps and concepts in this practicing system will take you light years ahead. As Mark says on the DVD, when you start to really analyze and combine these different, seemingly simple elements, the box gets ripped open and you can suddenly conceptualize and execute things the before seemed too complex to understand. I encourage players of all styles to check this book/video out!”

“We are thrilled to be working with Mark on this groundbreaking project,” said Hudson Music President Rob Wallis. “It takes you thru Mark’s process of finding your voice and how he developed his unique approach to the drum set.”

The book comes packaged with a full-length DVD (eBook includes embedded video instead of a DVD), and the video is also available for download using a code contained in the book. As with all Hudson products, the video is clearly cross-referenced with the text using an icon system.

Join Mark as he takes you on an exciting and fun journey that will expand your mind, strengthen your drumming, and inspire you to make music in your own unique way.

General
Complete name : 49_o_trio_busted 1.mov
Format : MPEG-4
Format profile : QuickTime
Codec ID : qt
File size : 40.2 MiB
Duration : 3mn 12s
Overall bit rate : 1 754 Kbps
Encoded date : UTC 2016-09-01 21:25:15
Tagged date : UTC 2016-09-01 21:25:16
Writing library : Apple QuickTime

Video
ID : 2
Format : AVC
Format/Info : Advanced Video Codec
Format profile : Main@L3.1
Format settings, CABAC : No
Format settings, ReFrames : 2 frames
Codec ID : avc1
Codec ID/Info : Advanced Video Coding
Duration : 3mn 12s
Source duration : 3mn 12s
Bit rate : 1 587 Kbps
Width : 1 280 pixels
Clean aperture width : 1 248 pixels
Height : 720 pixels
Clean aperture height : 702 pixels
Display aspect ratio : 16:9
Clean aperture display aspe : 16:9
Frame rate mode : Constant
Frame rate : 30.000 fps
Color space : YUV
Chroma subsampling : 4:2:0
Bit depth : 8 bits
Scan type : Progressive
Bits/(Pixel*Frame) : 0.057
Stream size : 36.3 MiB (91%)
Source stream size : 36.3 MiB (91%)
Language : English
Encoded date : UTC 2016-09-01 21:25:10
Tagged date : UTC 2016-09-01 21:25:16
Color range : Limited
Color primaries : BT.709
Transfer characteristics : BT.709
Matrix coefficients : BT.709

Audio
ID : 1
Format : AAC
Format/Info : Advanced Audio Codec
Format profile : LC
Codec ID : 40
Duration : 3mn 12s
Source duration : 3mn 12s
Bit rate mode : Constant
Bit rate : 160 Kbps
Channel(s) : 2 channels
Channel positions : Front: L R
Sampling rate : 44.1 KHz
Compression mode : Lossy
Stream size : 3.68 MiB (9%)
Source stream size : 3.68 MiB (9%)
Language : English
Encoded date : UTC 2016-09-01 21:25:10
Tagged date : UTC 2016-09-01 21:25:16
Screenshots

Mark Guiliana - Exploring Your Creativity on the Drumset (2016)

Mark Guiliana - Exploring Your Creativity on the Drumset (2016)

Mark Guiliana - Exploring Your Creativity on the Drumset (2016)

Mark Guiliana - Exploring Your Creativity on the Drumset (2016)

Mark Guiliana - Exploring Your Creativity on the Drumset (2016)

Exclusive eLearning Videos ParRus-blogadd to bookmarks

Mark Guiliana - Exploring Your Creativity on the Drumset (2016)