Jay Ungar - Fiddler's Guide To Waltzes, Airs & Haunting Melodies

Posted By: ParRus
Jay Ungar - Fiddler's Guide To Waltzes, Airs & Haunting Melodies

Jay Ungar - Fiddler's Guide To Waltzes, Airs & Haunting Melodies
DVDRip | English | MP4 | 720 x 480 | MPEG-4 ~1200 kbps | 29.970 fps
AAC 173 Kbps 48.0 KHz | 2 channels | 01:33:25 | 920.9 MB
Genre: eLearning Video / Fiddle, Violin

Fiddlers of all levels will learn how to turn tunes into distinctive compositions with ornaments, slides, and grace notes.
Jay Ungar - Fiddler's Guide To Waltzes, Airs & Haunting Melodies


General
Complete name : Jay Ungar - Fiddlers' Guide To Waltzes, Airs & Haunting Melodies (Homespun).mp4
Format : MPEG-4
Format profile : Base Media
Codec ID : isom
File size : 921 MiB
Duration : 1h 33mn
Overall bit rate mode : Variable
Overall bit rate : 1 378 Kbps
Movie name : A Fiddler's Guide to Waltzes, Airs & Haunting Melodies
Part/Position : 1
Part/Total : 1
Performer : Jay Ungar
Genre : Violin
Recorded date : 2004
Encoded date : UTC 1969-12-31 19:00:00
Tagged date : UTC 2006-11-13 22:04:06
Writing application : avc2.0.11.1110
Cover : Yes
Comment : QuickTime 6.0 or greater

Video
ID : 1
Format : MPEG-4 Visual
Format profile : Simple@L1
Format settings, BVOP : No
Format settings, QPel : No
Format settings, GMC : No warppoints
Format settings, Matrix : Default (H.263)
Codec ID : 20
Duration : 1h 33mn
Bit rate : 1 200 Kbps
Width : 720 pixels
Height : 480 pixels
Display aspect ratio : 3:2
Frame rate mode : Constant
Frame rate : 29.970 fps
Standard : NTSC
Color space : YUV
Chroma subsampling : 4:2:0
Bit depth : 8 bits
Scan type : Progressive
Compression mode : Lossy
Bits/(Pixel*Frame) : 0.116
Stream size : 802 MiB (87%)
Writing library : avc2.0.11.1110
Language : English
Encoded date : UTC 1969-12-31 19:00:00
Tagged date : UTC 1969-12-31 19:00:00

Audio
ID : 2
Format : AAC
Format/Info : Advanced Audio Codec
Format profile : LC
Codec ID : 40
Duration : 1h 33mn
Bit rate mode : Variable
Bit rate : 173 Kbps
Channel(s) : 2 channels
Channel positions : Front: L R
Sampling rate : 48.0 KHz
Compression mode : Lossy
Stream size : 115 MiB (13%)
Language : English
Encoded date : UTC 1969-12-31 19:00:00
Tagged date : UTC 2006-11-13 22:04:06
Screenshots

Jay Ungar - Fiddler's Guide To Waltzes, Airs & Haunting Melodies

Jay Ungar - Fiddler's Guide To Waltzes, Airs & Haunting Melodies

Jay Ungar - Fiddler's Guide To Waltzes, Airs & Haunting Melodies

Jay Ungar - Fiddler's Guide To Waltzes, Airs & Haunting Melodies

Jay Ungar - Fiddler's Guide To Waltzes, Airs & Haunting Melodies

Exclusive eLearning Videos ParRus-blogadd to bookmarks

Jay Ungar - Fiddler's Guide To Waltzes, Airs & Haunting Melodies