Subcategories

Video2Brain - Fundamentos de la fotografía: Exposición

Posted By: ParRus
Video2Brain - Fundamentos de la fotografía: Exposición

Video2Brain - Fundamentos de la fotografía: Exposición
Domina las bases fotográficas del manejo de la luz
(.mp4) in an interactive shell | 1280 x 720 | AVC ~2000 kbps | 29.970 fps
AAC | 96.0 Kbps | 44.1 KHz | 2 channels| Language: English | Subtitles: Spanish | 3h 23mn | 2.94 GB
Genre: Video tutorial / Photoshop

Arte y ciencia se necesitan para obtener la mejor exposición de una foto. En este curso, Ben Long ayuda a los fotógrafos a ampliar sus opciones artísticas, dándoles una comprensión profunda de la velocidad de obturación, apertura, ISO, y todas las demás prácticas críticas relacionadas a la exposición. Aprende a dominar los modos de medición de una cámara, cómo utilizar la compensación y reciprocidad de exposición, los controles de exposición básicos proporcionados por todas las cámaras réflex digitales, así como la mayoría de los modelos avanzados de “apuntar y disparar”, y mucho más.
Formadores: Ben Long
Fecha de publicación: 19/08/2014

Video2Brain - Fundamentos de la fotografía: Exposición

Presentación del curso Fundamentos de la fotografía: Exposición
Ben Long te presenta su curso Fundamentos de la fotografía: Exposición. Domina las bases fotográficas del manejo de la luz.

¿Qué es la exposición? 04:09
Unas palabras sobre marcas de cámaras 02:41
Fundamentos de la exposición
¿Qué es una cámara? 02:53
El obturador 03:53
El diafragma 01:33
Definición de la exposición 01:13
Anatomía de la cámara
Modos de disparo 02:08
Pulsando el disparador 02:55
Enfoque automático 05:16
Medición de la luz 02:03
Balance de blancos 01:25
Fundamentos de la velocidad de obturación
Imágenes nítidas 01:58
Observando la velocidad de obturación 04:10
Dominando la velocidad de obturación 01:31
Definición de los pasos 02:50
Modo de prioridad de obturador 04:35
Ejercicio: velocidad de obturación 00:40
Reciprocidad de parámetros 03:14
Controlando el movimiento 07:08
Incrementos en la velocidad de obturación 02:21
Ejercicio: practicando con la velocidad de obturación 01:10
El diafragma en profundidad
Profundidad de campo 01:54
Cómo se mide la apertura 02:42
Modo de prioridad de apertura 04:55
Disparamos una mayor profundidad de campo 03:51
Disparamos una menor profundidad de campo 02:40
El botón para previsualizar la profundidad de campo 04:25
¿Qué apertura utilizar? 02:47
Ejercicio: practicamos con la apertura 01:44
Trabajamos con la ISO
ISO: El tercer parámetro de exposición 06:28
Evaluación de la ISO alta de tu cámara 05:32
Disparar con poca luz 03:32
Ejercicio: disparamos con poca luz 00:56
Balance de blancos
Controles del balance de blancos 05:37
Ajuste manual del balance de blancos 04:25
Disparando en RAW 04:28
Modos de medición de la luz
Cómo se mide la luz 01:48
Por qué hay diferentes modos 04:17
Compensación de la exposición
La compensación de exposición 04:00
Sobreexposición intencional 02:41
Subexposición intencional 01:42
Controlamos el tono 02:32
El histograma 10:04
Histogramas del mundo real 05:49
Tono y color 02:16
Bracketing de exposición automático 03:47
Ejercicio: trabajo con compensación de exposición 00:60
Rango dinámico de la cámara
El rango dinámico 02:24
Exposición para imágenes muy claras 04:16
Flash de relleno 03:12
Tres soluciones para el mismo problema 03:06
Modo manual de la cámara
El modo manual 02:07
Modo manual y la medición de luz 04:53
Ejercicio: exposición manual 05:29
Modo programado avanzado
Modos personalizados y A-DEP 01:40
Cambio de programa 03:52
Compensación de exposición con cambio de programa 01:58
Ejercicio de reciprocidad 00:54
Modos de escena y procesamiento dentro de la cámara 03:39
Conclusiones del curso Fundamentos de la fotografía
Disparar con la postproducción ya en mente 03:46
Estrategia de exposición 03:51
Despedida de Fundamentos de la fotografía: Exposición

General
Complete name : ES_681_03_03_en.mp4
Format : MPEG-4
Format profile : Base Media
Codec ID : isom
File size : 79.5 MiB
Duration : 5mn 16s
Overall bit rate mode : Variable
Overall bit rate : 2 109 Kbps
Movie name : 03.03 Enfoque automatico
Album : Fundamentos de la fotografia: Exposicion
Album/Performer : Ben Long
Track name/Position : 10
Performer : Ben Long
Genre : Video-Training
Recorded date : 2014
Encoded date : UTC 2014-08-19 10:16:47
Tagged date : UTC 2014-08-19 10:53:13
Writing application : My MP4Box GUI 0.6.0.6 <http://my-mp4box-gui.zymichost.com>
Copyright : © 2014, video2brain GmbH
Cover : Yes
desc : Cuando ves algo, eliges que parte del campo de vision quieres enfocar; el mecanismo de las camaras es muy parecido cuando decides que quieres que enfoque.
ldes : Cuando ves algo, eliges que parte del campo de vision quieres enfocar; el mecanismo de las camaras es muy parecido cuando decides que quieres que enfoque. /
catg : Video-Training
stik : 10
tvsh : Fundamentos de la fotografia: Exposicion
Video #2
ID : 2
Format : AVC
Format/Info : Advanced Video Codec
Format profile : Main@L3.1
Format settings, CABAC : Yes
Format settings, ReFrames : 4 frames
Codec ID : avc1
Codec ID/Info : Advanced Video Coding
Duration : 5mn 16s
Bit rate : 2 000 Kbps
Maximum bit rate : 5 763 Kbps
Width : 1 280 pixels
Height : 720 pixels
Display aspect ratio : 16:9
Frame rate mode : Constant
Frame rate : 29.970 fps
Color space : YUV
Chroma subsampling : 4:2:0
Bit depth : 8 bits
Scan type : Progressive
Bits/(Pixel*Frame) : 0.072
Stream size : 75.6 MiB (95%)
Title : ES_681_03_03.mp4
Writing library : x264 core 115
Encoding settings : cabac=1 / ref=3 / deblock=1:0:0 / analyse=0x1:0x111 / me=hex / subme=7 / psy=1 / psy_rd=1.00:0.00 / mixed_ref=1 / me_range=16 / chroma_me=1 / trellis=1 / 8x8dct=0 / cqm=0 / deadzone=21,11 / fast_pskip=1 / chroma_qp_offset=-2 / threads=12 / sliced_threads=0 / nr=0 / decimate=1 / interlaced=0 / bluray_compat=0 / constrained_intra=0 / bframes=3 / b_pyramid=2 / b_adapt=1 / b_bias=0 / direct=1 / weightb=1 / open_gop=0 / weightp=2 / keyint=125 / keyint_min=12 / scenecut=50 / intra_refresh=0 / rc_lookahead=40 / rc=2pass / mbtree=1 / bitrate=2000 / ratetol=1.0 / qcomp=0.60 / qpmin=0 / qpmax=69 / qpstep=4 / cplxblur=20.0 / qblur=0.5 / ip_ratio=1.40 / aq=1:1.00
Language : English
Encoded date : UTC 2014-08-18 10:12:29
Tagged date : UTC 2014-08-19 10:16:47
Audio #1
ID : 1
Format : AAC
Format/Info : Advanced Audio Codec
Format profile : LC
Codec ID : 40
Duration : 5mn 16s
Bit rate mode : Variable
Bit rate : 96.0 Kbps
Maximum bit rate : 101 Kbps
Channel(s) : 2 channels
Channel positions : Front: L R
Sampling rate : 44.1 KHz
Compression mode : Lossy
Stream size : 3.62 MiB (5%)
Title : ES_681_03_03.mp4
Language : English
Encoded date : UTC 2014-08-19 10:16:47
Tagged date : UTC 2014-08-19 10:16:47
Text #5
ID : 5
Format : Timed Text
Muxing mode : sbtl
Codec ID : tx3g
Duration : 5mn 16s
Bit rate mode : Variable
Bit rate : 133 bps
Stream size : 5.15 KiB (0%)
Title : ES_681_03_03.srt
Language : Spanish
Encoded date : UTC 2014-08-19 10:16:47
Tagged date : UTC 2014-08-19 10:16:47
Screenshots

Video2Brain - Fundamentos de la fotografía: Exposición

Video2Brain - Fundamentos de la fotografía: Exposición

Video2Brain - Fundamentos de la fotografía: Exposición

Video2Brain - Fundamentos de la fotografía: Exposición

For more, Visit my AH-blog

no mirrors please, Follow The Rules

Video2Brain - Fundamentos de la fotografía: Exposición