Subcategories

Desi Serna - Getting Started With The Pentatonic Scale

Posted By: ParRus
Desi Serna - Getting Started With The Pentatonic Scale

Desi Serna - Getting Started With The Pentatonic Scale
DVDRip | English | MP4 | 848 x 430 | AVC ~923 kbps | 29.970 fps
AAC 132 Kbps 48.0 KHz | 2 channels | 01:58:42 | 899 MB
Genre: eLearning Video / Guitar lesson

This video program is intended for beginner to intermediate level guitar players. The Pentatonic Scale is one of the most common guitar scales in all of popular music. It's used to play melodies, riffs, lead guitar solos and bass lines. Learn the five pentatonic patterns plus technique such as hammer-ons, pull-offs, slides, bends and alternate picking.
also You can look my other last: Guitar Lessons-posts

General
Complete name : DVD 1 - Getting Started with the Pentatonic Scale.mp4
Format : MPEG-4
Format profile : Base Media / Version 2
Codec ID : mp42
File size : 899 MiB
Duration : 1h 58mn
Overall bit rate mode : Variable
Overall bit rate : 1 059 Kbps
Encoded date : UTC 2010-03-31 17:26:38
Tagged date : UTC 2010-03-31 22:41:31
Writing application : HandBrake 0.9.4 2009112300

Video
ID : 1
Format : AVC
Format/Info : Advanced Video Codec
Format profile : Main@L3
Format settings, CABAC : Yes
Format settings, ReFrames : 2 frames
Codec ID : avc1
Codec ID/Info : Advanced Video Coding
Duration : 1h 58mn
Duration_FirstFrame : 33ms
Bit rate : 923 Kbps
Width : 648 pixels
Height : 430 pixels
Display aspect ratio : 4:3
Frame rate mode : Constant
Frame rate : 29.970 fps
Color space : YUV
Chroma subsampling : 4:2:0
Bit depth : 8 bits
Scan type : Progressive
Bits/(Pixel*Frame) : 0.111
Stream size : 784 MiB (87%)
Writing library : x264 core 79 r1347 5ddd61b
Encoding settings : cabac=1 / ref=2 / deblock=1:0:0 / analyse=0x1:0x111 / me=hex / subme=6 / psy=1 / psy_rd=1.0:0.0 / mixed_ref=0 / me_range=16 / chroma_me=1 / trellis=0 / 8x8dct=0 / cqm=0 / deadzone=21,11 / chroma_qp_offset=-2 / threads=1 / nr=0 / decimate=1 / mbaff=0 / constrained_intra=0 / bframes=2 / b_pyramid=0 / b_adapt=1 / b_bias=0 / direct=1 / wpredb=0 / wpredp=2 / keyint=300 / keyint_min=30 / scenecut=40 / rc_lookahead=40 / rc=crf / mbtree=1 / crf=20.0 / qcomp=0.60 / qpmin=10 / qpmax=51 / qpstep=4 / ip_ratio=1.40 / aq=1:1.00
Encoded date : UTC 2010-03-31 17:26:38
Tagged date : UTC 2010-03-31 22:41:31
Color range : Limited
Color primaries : BT.601 NTSC
Transfer characteristics : BT.709
Matrix coefficients : BT.601

Audio
ID : 2
Format : AAC
Format/Info : Advanced Audio Codec
Format profile : LC
Codec ID : 40
Duration : 1h 58mn
Bit rate mode : Variable
Bit rate : 132 Kbps
Maximum bit rate : 144 Kbps
Channel(s) : 2 channels
Channel positions : Front: L R
Sampling rate : 48.0 KHz
Compression mode : Lossy
Stream size : 112 MiB (12%)
Title : Stereo
Encoded date : UTC 2010-03-31 17:26:38
Tagged date : UTC 2010-03-31 22:41:31

Menu
ID : 3
Codec ID : text
Duration : 1h 58mn
Encoded date : UTC 2010-03-31 17:26:38
Tagged date : UTC 2010-03-31 22:41:31
Bit rate mode : CBR
Screenshots

Desi Serna - Getting Started With The Pentatonic Scale

Desi Serna - Getting Started With The Pentatonic Scale

Desi Serna - Getting Started With The Pentatonic Scale

Desi Serna - Getting Started With The Pentatonic Scale

Desi Serna - Getting Started With The Pentatonic Scale

Exclusive eLearning Videos ParRus-blogadd to bookmarks

Desi Serna - Getting Started With The Pentatonic Scale