Subcategories

frontendmasters - JavaScript: The Recent Parts (2019)

Posted By: ParRus
frontendmasters - JavaScript: The Recent Parts (2019)

frontendmasters - JavaScript: The Recent Parts (2019)
WEBRip | English | MP4 + Project Files | 1920 x 1080 | VP8 ~235 Kbps | 29.970 fps
VORBIS | 192 Kbps | 48.0 KHz | 2 channels | 4h 09mn | 1.67 GB
Genre: Video Tutorial / Programming

Learn the latest features in JavaScript with Kyle Simpson, author of the popular, You Don't Know JS, book series. You'll get up to speed with new JavaScript features like tagged template literals, destructuring, iterators, generators, regex improvements and async await.
also You can find my other useful: programming-posts

General
Complete name : 4. Nested Object Destructuring.mp4
Format : WebM
Format version : Version 2
File size : 7.89 MiB
Duration : 2 min 25 s
Overall bit rate mode : Variable
Overall bit rate : 454 kb/s
Writing application : Lavf57.71.100
Writing library : Lavf57.71.100
FileExtension_Invalid : webm

Video
ID : 2
Format : VP8
Codec ID : V_VP8
Duration : 2 min 25 s
Bit rate : 235 kb/s
Width : 1 920 pixels
Height : 1 080 pixels
Display aspect ratio : 16:9
Frame rate mode : Constant
Frame rate : 29.970 (30000/1001) FPS
Compression mode : Lossy
Bits/(Pixel*Frame) : 0.004
Stream size : 4.08 MiB (52%)
Language : English
Default : Yes
Forced : No

Audio
ID : 1
Format : Vorbis
Format settings, Floor : 1
Codec ID : A_VORBIS
Duration : 2 min 25 s
Bit rate mode : Variable
Bit rate : 192 kb/s
Channel(s) : 2 channels
Sampling rate : 48.0 kHz
Compression mode : Lossy
Delay relative to video : -3 ms
Stream size : 3.34 MiB (42%)
Writing application : Lavc57.89.100
Writing library : libVorbis (в›„в›„в›„в›„) (20150105 (в›„в›„в›„в›„))
Language : English
Default : Yes
Forced : No

Screenshots

frontendmasters - JavaScript: The Recent Parts (2019)

frontendmasters - JavaScript: The Recent Parts (2019)

frontendmasters - JavaScript: The Recent Parts (2019)

frontendmasters - JavaScript: The Recent Parts (2019)

✅ Exclusive eLearning Videos ParRus-blogadd to bookmarks

Feel free to contact me PM
when links are dead or want any repost

frontendmasters - JavaScript: The Recent Parts (2019)