Subcategories

Jojo Mayer - Secret Weapons For The Modern Drummer - Part 2: A Guide to Foot Technique (2014)

Posted By: ParRus
Jojo Mayer - Secret Weapons For The Modern Drummer - Part 2: A Guide to Foot Technique (2014)

Jojo Mayer - Secret Weapons For The Modern Drummer - Part 2: A Guide to Foot Technique
3 x DVD5 | English | VOB | 720 x 480 | MPEG2 ~5557 kbps | 29.970 fps
AC-3 | 192 Kbps | 48.0 KHz | 2 channels | 4h 43mn | 11.23 GB
Genre: eLearning Video / Percussion (2014)

Presenting the most comprehensive guide to foot technique for drummers ever available. With this sequel to his award-winning bestseller on hand technique, Jojo Mayer covers a wide range of techniques, from the most fundamental to the most sophisticated. State-of-the-art visualization and in-depth analysis offer easy to follow, step-by-step instructions for drummers of every skill level. In this highly entertaining and informative program, Jojo explains every aspect of foot technique and pedals—and for the first time reveals the inner workings of his own technique in great detail.
Contents include bass drum technique fundamentals including heel-down and heel-up playing, playing “in” vs. “out” of the bass drum, the pivot, bass drum hybrid techniques such as double strokes, the constant release technique, exploiting rebound/dislocated spring exercise, the rocking motion, the swiveling technique, the heel-toe technique, the Mayer power slide technique, grouping exercises, the Moeller pumping motion and Jojo’s personal “secret weapon” techniques.

Also included is a complete discussion of the history of the bass drum pedal, anatomy of the pedal, a guide on adjusting your pedals, overview of the perfect balance pedal, discussion of shoes, single vs. double pedal, and a complete analysis of the hi-hat, from its history to setup to playing techniques. Jojo also covers useful topics such as speed, control, managing beater flutter, balance on the drum seat, seat height and posture, and single and double stroke coordination. Additional bonus material, tips and performance clips are included as well.

General
Complete name :VTS_01_4.VOB
Format : MPEG-PS
File size : 813 MiB
Duration : 19mn 22s
Overall bit rate mode : Variable
Overall bit rate : 5 866 Kbps

Video
ID : 224 (0xE0)
Format : MPEG Video
Format version : Version 2
Format profile : Main@Main
Format settings, BVOP : Yes
Format settings, Matrix : Default
Format settings, GOP : M=3, N=15
Duration : 19mn 22s
Bit rate mode : Variable
Bit rate : 5 557 Kbps
Maximum bit rate : 6 500 Kbps
Width : 720 pixels
Height : 480 pixels
Display aspect ratio : 16:9
Frame rate : 29.970 fps
Standard : NTSC
Color space : YUV
Chroma subsampling : 4:2:0
Bit depth : 8 bits
Scan type : Progressive
Compression mode : Lossy
Bits/(Pixel*Frame) : 0.537
Stream size : 770 MiB (95%)

Audio
ID : 189 (0xBD)-128 (0x80)
Format : AC-3
Format/Info : Audio Coding 3
Mode extension : CM (complete main)
Muxing mode : DVD-Video
Duration : 19mn 22s
Bit rate mode : Constant
Bit rate : 192 Kbps
Channel(s) : 2 channels
Channel positions : Front: L R
Sampling rate : 48.0 KHz
Bit depth : 16 bits
Compression mode : Lossy
Delay relative to video : -609ms
Stream size : 26.6 MiB (3%)

Menu
Screenshots

Jojo Mayer - Secret Weapons For The Modern Drummer - Part 2: A Guide to Foot Technique (2014)

Jojo Mayer - Secret Weapons For The Modern Drummer - Part 2: A Guide to Foot Technique (2014)

Jojo Mayer - Secret Weapons For The Modern Drummer - Part 2: A Guide to Foot Technique (2014)

Jojo Mayer - Secret Weapons For The Modern Drummer - Part 2: A Guide to Foot Technique (2014)

Jojo Mayer - Secret Weapons For The Modern Drummer - Part 2: A Guide to Foot Technique (2014)

For more, Visit my AH-blog

no mirrors please, Follow The Rules

Jojo Mayer - Secret Weapons For The Modern Drummer - Part 2: A Guide to Foot Technique (2014)