Subcategories

creativeLIVE: Keep it Simple: Video for Photographers [repost]

Posted By: ParRus
creativeLIVE: Keep it Simple: Video for Photographers [repost]

creativeLIVE: Keep it Simple: Video for Photographers
WEBRip | WMV | English | 968 x 544 | AVC ~700 kbps | 25 fps
WMV3 | 96 Kbps | 44.1 KHz | 2 channels | 17:09:47 | 5.52 GB
Genre: eLearning Video / Photographing

Videography just got easy. Lindsay Adler and Jeff Rojas are going to show how to apply your existing rockstar photography skills to capturing video — without investing in fancy equipment or learning complicated technical jargon.
This three-day creativeLIVE course will focus on simple, easy-to-implement videography techniques. You’ll learn how the photography gear you already own can be repurposed for video. You’ll also explore the lighting basics essential to capturing motion. You’ll build concrete strategies for integrating filming and editing video into your existing photography workflow. Lindsay and Jeff will share their unique techniques for using video as a way to tell stories and for integrating your one-of-a-kind style into your video work.

Whether you’re looking to add a lucrative new dimension to your photography business or ready to capture compelling home movies, this course will demystify videography and give you the tools you need to film and edit like a pro.

also You can look my other last: Photography-posts

General
Complete name : CreativeLive - Lindsay Adler - Jeff Rojas - Keep Is Simple - Video for Photographers - Day 2.wmv
Format : Windows Media
File size : 1.87 GiB
Duration : 5h 38mn
Overall bit rate mode : Constant
Overall bit rate : 790 Kbps
Maximum Overall bit rate : 806 Kbps
Encoded date : UTC 2013-10-18 21:02:13.709

Video
ID : 2
Format : VC-1
Format profile : Main
Codec ID : WMV3
Codec ID/Info : Windows Media Video 9
Codec ID/Hint : WMV3
Description of the codec : Windows Media Video 9
Duration : 5h 38mn
Bit rate : 700 Kbps
Width : 968 pixels
Height : 544 pixels
Display aspect ratio : 16:9
Frame rate : 25.000 fps
Bit depth : 8 bits
Scan type : Progressive
Compression mode : Lossy
Bits/(Pixel*Frame) : 0.053
Stream size : 1.66 GiB (89%)
Language : English (US)

Audio
ID : 1
Format : WMA
Format version : Version 2
Codec ID : 161
Codec ID/Info : Windows Media Audio
Description of the codec : Windows Media Audio 9.2 - 96 kbps, 44 kHz, stereo 1-pass CBR
Duration : 5h 38mn
Bit rate mode : Constant
Bit rate : 96.0 Kbps
Channel(s) : 2 channels
Sampling rate : 44.1 KHz
Bit depth : 16 bits
Stream size : 233 MiB (12%)
Language : English (US)

Screenshots

creativeLIVE: Keep it Simple: Video for Photographers [repost]

creativeLIVE: Keep it Simple: Video for Photographers [repost]

creativeLIVE: Keep it Simple: Video for Photographers [repost]

creativeLIVE: Keep it Simple: Video for Photographers [repost]

creativeLIVE: Keep it Simple: Video for Photographers [repost]

Exclusive eLearning Videos ParRus-blogadd to bookmarks

creativeLIVE: Keep it Simple: Video for Photographers [repost]