Subcategories

The Unreal Engine Developer Course - Learn C++ & Make Games (Update 2017)

Posted By: ParRus
The Unreal Engine Developer Course - Learn C++ & Make Games (Update 2017)

The Unreal Engine Developer Course - Learn C++ & Make Games (2017)
WEBRip | English | MP4 + Project files | 1920 x 1080 | AVC ~566 kbps | 30 fps
AAC | 192 Kbps | 48.0 KHz | 2 channels | ~50 hours | 20.5 GB
Genre: eLearning Video / Computer Science, Development, Programming

Learn C++ from scratch. How to make your first video game in Unreal engine. Gain confidence in programming.
NEW Testing Grounds FPS shipping now, including…

Much more C++ and Blueprint.
AI Blackboards & Behavior Trees.
Environmental Query System (EQS).
Humanoid Animation Blending.
Never-ending Level Design.

This course started as a runaway success on Kickstarter. Get involved now, and get access to all future content as it's added. The final course will be over 50 hours of content and 300+ lectures.

Learn how to create and mod video games using Unreal Engine 4, the free-to-use game development platform used by AAA studios and indie developers worldwide.

We start super simple so you need no prior experience of Unreal or coding! With our online tutorials, you'll be amazed what you can achieve.

Benefit from our world-class support from both other students, and the instructors who are on the forums regularly. Go on to build several games including a tank game, and a First Person Shooter.

You will have access to a course forum where you can discuss topics on a course-wide basis, or down to the individual video. Our thriving discussion forum will help you learn and share ideas with other students.

You will learn C++, the powerful industry standard language from scratch. By the end of the course you'll be very confident in the basics of coding and game development, and hungry to learn more.

"Any serious game programmer needs to know C++"Jason Gregory, Lead Programmer at Naughty Dog (creators of Uncharted & The Last of Us)

Anyone who wants to learn to create games: Unreal Engine is a fantastic platform which enables you to make AAA-quality games. Furthermore these games can be created for Windows, consoles, MacOS, iOS, Android and Web from a single source!

If you're a complete beginner, we'll teach you all the coding and game design principles you'll need. If you're an artist, we'll teach you to bring your assets to life. If you're a coder, we'll teach you game design principles.

What this course DOESN'T cover…

Whereas this course is already huge, we can't possibly cover everything in that time. Here are some things we will not be covering…

Team collaboration topics.
Editor plugins or modifications.
Physics engine modification.

Content:

01 getting started with ios 10 swift 3
02 learn to code with swift 3
03 version control with git github
04 foundational ios
05 data persistence core data
06 working with rest web requests on ios 10 swift 3
07 protocol oriented programming and advanced swift 3
08 ios 10 hot new features
09 building full stack apps with firebase
10 maps gps geolocation pokemon firebase
11 creating a social network with firebase
12 intermediate creating a snapchat clone with firebase
13 designing mobile apps with sketch 3
14 designing a chat app in sketch 3
15 designing an social media app in sketch 3
16 objectivec swift 3 getting started
17 a deeper look into objectivec
18 advanced objectivec
19 objectivec building a tutorial youtube app
20 design provisioning testing and ios 10 app submission
21 bonus devslopes online bootcamp classroom sessions

also You can watch my other last: Programming-posts

General
Complete name : 116-ios-10-speech-recognition-api.mp4
Format : MPEG-4
Format profile : Base Media / Version 2
Codec ID : mp42
File size : 254 MiB
Duration : 46mn 46s
Overall bit rate mode : Variable
Overall bit rate : 759 Kbps
Encoded date : UTC 2016-08-11 13:50:15
Tagged date : UTC 2016-08-11 13:50:15
Writing application : Lavf53.32.100

Video
ID : 1
Format : AVC
Format/Info : Advanced Video Codec
Format profile : High@L3
Format settings, CABAC : Yes
Format settings, ReFrames : 4 frames
Codec ID : avc1
Codec ID/Info : Advanced Video Coding
Duration : 46mn 45s
Bit rate : 566 Kbps
Width : 1 920 pixels
Height : 1 080 pixels
Display aspect ratio : 16:9
Frame rate mode : Constant
Frame rate : 30.000 fps
Color space : YUV
Chroma subsampling : 4:2:0
Bit depth : 8 bits
Scan type : Progressive
Bits/(Pixel*Frame) : 0.009
Stream size : 189 MiB (75%)
Writing library : x264 core 136
Encoding settings : cabac=1 / ref=4 / deblock=1:0:0 / analyse=0x3:0x113 / me=umh / subme=7 / psy=0 / mixed_ref=1 / me_range=16 / chroma_me=1 / trellis=1 / 8x8dct=1 / cqm=0 / deadzone=21,11 / fast_pskip=0 / chroma_qp_offset=0 / threads=48 / lookahead_threads=8 / sliced_threads=0 / nr=0 / decimate=1 / interlaced=0 / bluray_compat=0 / constrained_intra=0 / bframes=16 / b_pyramid=2 / b_adapt=1 / b_bias=0 / direct=1 / weightb=1 / open_gop=0 / weightp=2 / keyint=300 / keyint_min=25 / scenecut=40 / intra_refresh=0 / rc=crf / mbtree=0 / crf=23.0 / qcomp=0.60 / qpmin=10 / qpmax=51 / qpstep=4 / ip_ratio=1.40 / pb_ratio=1.30 / aq=1:1.00
Encoded date : UTC 2016-08-11 13:50:15
Tagged date : UTC 2016-08-17 22:03:37

Audio
ID : 2
Format : AAC
Format/Info : Advanced Audio Codec
Format profile : LC
Codec ID : 40
Duration : 46mn 46s
Bit rate mode : Variable
Bit rate : 192 Kbps
Maximum bit rate : 207 Kbps
Channel(s) : 2 channels
Channel positions : Front: L R
Sampling rate : 48.0 KHz
Compression mode : Lossy
Stream size : 63.3 MiB (25%)
Encoded date : UTC 2016-08-11 13:50:15
Tagged date : UTC 2016-08-17 22:03:37
Screenshots

The Unreal Engine Developer Course - Learn C++ & Make Games (Update 2017)

The Unreal Engine Developer Course - Learn C++ & Make Games (Update 2017)

The Unreal Engine Developer Course - Learn C++ & Make Games (Update 2017)

The Unreal Engine Developer Course - Learn C++ & Make Games (Update 2017)

The Unreal Engine Developer Course - Learn C++ & Make Games (Update 2017)

Exclusive eLearning Videos ParRus-blogadd to bookmarks

The Unreal Engine Developer Course - Learn C++ & Make Games (Update 2017)