Subcategories

Liquid Asana Live DVD Set - Micheline Berry

Posted By: ParRus
Liquid Asana Live DVD Set - Micheline Berry

Liquid Asana Live DVD Set - Micheline Berry
DVDRip | English | MP4 + PDF Guides | 640 x 360 | AVC ~693 Kbps | 23.976 fps
AAC | 96 kbps | 48.0 KHz | 2 channel | ~12 hours | 4.64 GB
Genre: Video Training / Yoga

In November 2013, 12 Musicians, 3 Artists and 30 Yogis flew into Nu Boyana studios in Sofia, Bulgaria. They came from around the world to join internationally acclaimed yoga teacher, Micheline Berry in creating Liquid Asana LIVE: Yoga, Creativity & The Artist's Journey,a 12-DVD full spectrum vinyasa yoga program consisting of 12 different sequences. Join DJ Drez, Craig Kohland/Shaman's Dream, Joey Lugassy, Dave Stringer, Spring Goove, Deepak Ramapriyan, Anita Coats, Moose Ali Kahn, Domonic Dean Breaux, and the rest of the musicians as they musically guide the fluid dance of your vinyasa yoga practice.
Included in this Liquid Asana LIVE box set is Micheline's 40day Yoga, Mindfulness and Creativity Program "The Artist's Journey" as well as music videos, interviews, and an inspirational Robert Sturman yoga+art poster and calendar all designed to ignite your creative expression. One year in the making, we're excited to be finally sharing this extraordinary experience of yoga, tribe, music, art and culture with you all.

Liquid Asana Live DVD Set - Micheline Berry

price: $119
More Info: amazon

also you can find more: Yoga

General
Complete name : Roots Rock And Flow.mp4
Format : MPEG-4
Format profile : Base Media / Version 2
Codec ID : mp42
File size : 426 MiB
Duration : 1h 14mn
Overall bit rate mode : Variable
Overall bit rate : 797 Kbps
Encoded date : UTC 2036-02-06 06:28:16
Tagged date : UTC 2036-02-06 06:28:16
Writing application : HandBrake 0.10.2 2015060900

Video
ID : 1
Format : AVC
Format/Info : Advanced Video Codec
Format profile : Main@L4.0
Format settings, CABAC : Yes
Format settings, ReFrames : 4 frames
Codec ID : avc1
Codec ID/Info : Advanced Video Coding
Duration : 1h 14mn
Bit rate : 693 Kbps
Width : 640 pixels
Height : 360 pixels
Display aspect ratio : 16:9
Frame rate mode : Variable
Frame rate : 23.976 fps
Minimum frame rate : 14.985 fps
Maximum frame rate : 29.970 fps
Color space : YUV
Chroma subsampling : 4:2:0
Bit depth : 8 bits
Scan type : Progressive
Bits/(Pixel*Frame) : 0.125
Stream size : 370 MiB (87%)
Writing library : x264 core 142 r2479 dd79a61
Encoding settings : cabac=1 / ref=1 / deblock=1:0:0 / analyse=0x1:0x111 / me=hex / subme=2 / psy=1 / psy_rd=1.00:0.00 / mixed_ref=0 / me_range=16 / chroma_me=1 / trellis=0 / 8x8dct=0 / cqm=0 / deadzone=21,11 / fast_pskip=1 / chroma_qp_offset=0 / threads=6 / lookahead_threads=2 / sliced_threads=0 / nr=0 / decimate=1 / interlaced=0 / bluray_compat=0 / constrained_intra=0 / bframes=3 / b_pyramid=2 / b_adapt=1 / b_bias=0 / direct=1 / weightb=1 / open_gop=0 / weightp=1 / keyint=300 / keyint_min=30 / scenecut=40 / intra_refresh=0 / rc_lookahead=10 / rc=crf / mbtree=1 / crf=20.0 / qcomp=0.60 / qpmin=0 / qpmax=69 / qpstep=4 / vbv_maxrate=20000 / vbv_bufsize=25000 / crf_max=0.0 / nal_hrd=none / filler=0 / ip_ratio=1.40 / aq=1:1.00
Encoded date : UTC 2036-02-06 06:28:16
Tagged date : UTC 2036-02-06 06:28:16
Color primaries : BT.601-6 525, BT.1358 525, BT.1700 NTSC, SMPTE 170M
Transfer characteristics : BT.709-5, BT.1361
Matrix coefficients : BT.601-6 525, BT.1358 525, BT.1700 NTSC, SMPTE 170M

Audio
ID : 2
Format : AAC
Format/Info : Advanced Audio Codec
Format profile : LC
Codec ID : 40
Duration : 1h 14mn
Bit rate mode : Variable
Bit rate : 96.0 Kbps
Channel(s) : 2 channels
Channel positions : Front: L R
Sampling rate : 48.0 KHz
Compression mode : Lossy
Stream size : 51.4 MiB (12%)
Title : Stereo
Language : English
Encoded date : UTC 2036-02-06 06:28:16
Tagged date : UTC 2036-02-06 06:28:16

Text
ID : 3
Format : Apple text
Codec ID : text
Duration : 1h 14mn
Bit rate mode : Constant
Bit rate : 0
Stream size : 184 Bytes (0%)
Language : English
Encoded date : UTC 2036-02-06 06:28:16
Tagged date : UTC 2036-02-06 06:28:16
Screenshots

Liquid Asana Live DVD Set - Micheline Berry

Liquid Asana Live DVD Set - Micheline Berry

Liquid Asana Live DVD Set - Micheline Berry

Liquid Asana Live DVD Set - Micheline Berry

Liquid Asana Live DVD Set - Micheline Berry

For more Exclusive material, Visit my AH-blog

Liquid Asana Live DVD Set - Micheline Berry