Subcategories

ADSR Sounds - Masterclass Mastering With Ozone 7 (2016)

Posted By: ParRus
ADSR Sounds - Masterclass Mastering With Ozone 7 (2016)

ADSR Sounds - Masterclass Mastering With Ozone 7 (2016)
WEBRip | English | MP4 | 1280 x 720 | AVC ~2475 kbps | 29.940 fps
AAC | 96 Kbps | 44.1 KHz | 2 channels | 04:19:02 | 4.4 GB
Genre: Video Tutorial / Sound Processing

In this comprehensive tutorial course, Echo Sound Works takes you through the world of mastering and how to use Ozone 7 Advanced to master your own music.
22 individual video tutorials totalling over 4 hours of indepth instruction. The Mastering with Ozone 7 and Ozone 7 Advanced Course is broken into 6 unique modules and will explain the concepts and practices of mastering; look at all the features and functions of Ozone 7 and how they pertain to mastering; and allow you to observe step-by-step techniques for mastering both specific instruments and complete tracks. Learn exactly how to use Ozone 7 to polish your musical projects to perfection.

MODULE 1: The Fundamentals of Mastering

Part 1 – Introduction
Part 2 – Mixing Vs Mastering - This video covers the key differences between mixing and mastering and how to separate the processes.
Part 3 – What is Ozone - This section details what Izotope Ozone 7 is, how it differs from other production software such as a DAW and how it fits in the Mastering workflow.
Part 4 – Mastering FX - This video covers the typical types of plugins used in a mastering project.
Part 5 – Mastering Mindset - This video is designed to shift you into the mindset of a mastering engineer. Mastering and mixing are two very different applications and trying to mix when you are mastering will only hurt your project in the long run.
Part 6 – Prepping The Mix - This video covers how to prep the mix for mastering so you’re starting off in a good place.

MODULE 2: Izotope Ozone 7 Features & Functions

Part 7 – Interface - This video covers the basics of the Ozone 7 interface.
Part 8 – Equalizer - This section takes an in depth look at the main EQ and it’s function in Ozone 7.
Part 9 – Post EQ - Ozone comes with a post EQ for added flexibility. This video will teach you when and how to use it.
Part 10 – Dynamic EQ - This is Ozone’s special EQ it employs a mix of equalization and multi band compression.
Part 11 – Vintage EQ - One of the best additions to Ozone 7 is the Vintage EQ module. Discover its creative uses.

also You can look my other last: Sound Processing-posts

General
Complete name : 08 Equalizer.mp4
Format : MPEG-4
Format profile : Base Media / Version 2
Codec ID : mp42
File size : 478 MiB
Duration : 25mn 56s
Overall bit rate : 2 576 Kbps
Encoded date : UTC 2016-05-13 19:39:44
Tagged date : UTC 2016-05-13 19:39:44
stik :
iTunMOVI :

Video
ID : 1
Format : AVC
Format/Info : Advanced Video Codec
Format profile : Main@L4.1
Format settings, CABAC : Yes
Format settings, ReFrames : 1 frame
Format settings, GOP : M=1, N=25
Muxing mode : Container profile=Baseline@4.1
Codec ID : avc1
Codec ID/Info : Advanced Video Coding
Duration : 25mn 56s
Bit rate : 2 475 Kbps
Width : 1 280 pixels
Height : 720 pixels
Display aspect ratio : 16:9
Frame rate mode : Constant
Frame rate : 29.970 fps
Color space : YUV
Chroma subsampling : 4:2:0
Bit depth : 8 bits
Scan type : Progressive
Bits/(Pixel*Frame) : 0.090
Stream size : 459 MiB (96%)
Language : English

Audio
ID : 2
Format : AAC
Format/Info : Advanced Audio Codec
Format profile : LC
Codec ID : 40
Duration : 25mn 56s
Bit rate mode : Constant
Bit rate : 96.0 Kbps
Channel(s) : 2 channels
Channel positions : Front: L R
Sampling rate : 44.1 KHz
Compression mode : Lossy
Stream size : 17.8 MiB (4%)
Language : English

Screenshots

ADSR Sounds - Masterclass Mastering With Ozone 7 (2016)

ADSR Sounds - Masterclass Mastering With Ozone 7 (2016)

ADSR Sounds - Masterclass Mastering With Ozone 7 (2016)

ADSR Sounds - Masterclass Mastering With Ozone 7 (2016)

ADSR Sounds - Masterclass Mastering With Ozone 7 (2016)

Exclusive eLearning Videos ParRus-blogadd to bookmarks

ADSR Sounds - Masterclass Mastering With Ozone 7 (2016)