Subcategories

Matthew Owens - Triforce Trader [reduced]

Posted By: ParRus
Matthew Owens - Triforce Trader [reduced]

Matthew Owens - Triforce Trader
WEBRip | English | MP4 + PDF Guides | 1920 x 968 | AVC ~300 kbps | 30 fps
AAC | 160 Kbps | 48.0 KHz | 2 channels | 10:39:04 | 2.08 GB
Genre: eLearning Video / Investing, Trading, Stocks

Learn to trade with Matthew Owens (top Paul Scolardi aka Superman student). He has Verified $850,000 IN 1.5 Years !
My name is Matthew Owens, I'm 25 years old. I'm a full time Stock Trader, Tut, Gym Trainer, and Video Production Maker/Edit. I graduated from Flida Atlantic University with a double bachels. One in Psychology and one in German. Currently I'm in my Master Program f Fensic Psychology at the University of Nth Dakota

Course Topics:

Introduction to stocks
Tools That I Use
Broker Terminals/Level 2
Psychology Of Trading/Trading Rules
Introduction To Technical Analysis
Ichimoku Cloud Basics and Chart Rules
Comprehensive Chart Trading
Introduction To Fundamentals
Financial Metrics and Terminologies
SEC Filings
Analyzing Press Releases
IPOS and Stock Splits
Biotechs
Stock Options
Penny Stock Trading
Futures Trading

and You can watch my other last: Business-posts

General
Complete name : 5.introduction To Technical Analysis.mp4
Format : MPEG-4
Format profile : Base Media / Version 2
Codec ID : mp42
File size : 144 MiB
Duration : 43mn 6s
Overall bit rate mode : Variable
Overall bit rate : 467 Kbps
Encoded date : UTC 2017-02-18 05:50:16
Tagged date : UTC 2017-02-18 05:50:16
Writing application : HandBrake 1.0.0 2016122400

Video
ID : 1
Format : AVC
Format/Info : Advanced Video Codec
Format profile : Main@L4
Format settings, CABAC : Yes
Format settings, ReFrames : 4 frames
Codec ID : avc1
Codec ID/Info : Advanced Video Coding
Duration : 43mn 6s
Bit rate : 300 Kbps
Width : 1 920 pixels
Height : 968 pixels
Display aspect ratio : 1.983
Frame rate mode : Constant
Frame rate : 30.000 fps
Color space : YUV
Chroma subsampling : 4:2:0
Bit depth : 8 bits
Scan type : Progressive
Bits/(Pixel*Frame) : 0.005
Stream size : 92.5 MiB (64%)
Writing library : x264 core 148 r2708 86b7198
Encoding settings : cabac=1 / ref=2 / deblock=1:0:0 / analyse=0x1:0x111 / me=hex / subme=6 / psy=1 / psy_rd=1.00:0.00 / mixed_ref=1 / me_range=16 / chroma_me=1 / trellis=1 / 8x8dct=0 / cqm=0 / deadzone=21,11 / fast_pskip=1 / chroma_qp_offset=-2 / threads=3 / lookahead_threads=1 / sliced_threads=0 / nr=0 / decimate=1 / interlaced=0 / bluray_compat=0 / constrained_intra=0 / bframes=3 / b_pyramid=2 / b_adapt=1 / b_bias=0 / direct=1 / weightb=1 / open_gop=0 / weightp=1 / keyint=300 / keyint_min=30 / scenecut=40 / intra_refresh=0 / rc_lookahead=30 / rc=2pass / mbtree=1 / bitrate=300 / ratetol=1.0 / qcomp=0.60 / qpmin=0 / qpmax=69 / qpstep=4 / cplxblur=20.0 / qblur=0.5 / vbv_maxrate=20000 / vbv_bufsize=25000 / nal_hrd=none / filler=0 / ip_ratio=1.40 / aq=1:1.00
Encoded date : UTC 2017-02-18 05:50:16
Tagged date : UTC 2017-02-18 05:50:16
Color range : Limited
Color primaries : BT.709
Transfer characteristics : BT.709
Matrix coefficients : BT.709

Audio
ID : 2
Format : AAC
Format/Info : Advanced Audio Codec
Format profile : LC
Codec ID : 40
Duration : 43mn 6s
Bit rate mode : Variable
Bit rate : 160 Kbps
Channel(s) : 2 channels
Channel positions : Front: L R
Sampling rate : 48.0 KHz
Compression mode : Lossy
Stream size : 49.4 MiB (34%)
Title : Stereo / Stereo
Encoded date : UTC 2017-02-18 05:50:16
Tagged date : UTC 2017-02-18 05:50:16

Screenshots

Matthew Owens - Triforce Trader [reduced]

Matthew Owens - Triforce Trader [reduced]

Matthew Owens - Triforce Trader [reduced]

Matthew Owens - Triforce Trader [reduced]

Exclusive eLearning Videos ParRus-blogadd to bookmarks

Matthew Owens - Triforce Trader [reduced]